Скачать через торрент музыку Frank Morgan - Love, Lost & Found - 1995, APE бесплатно без регистрации torrent

Если у вас наблюдаются проблемы со скриншотами, переходом по ссылками, скачиванием торрентов - проблемы в блокировщике рекламы AdBlock. #хорошегоДня!


Статистика раздачи
Размер:  295 MB   |    Зарегистрирован:  5 лет 8 месяцев   |    .torrent скачан:  25 раз   |   
Раздают:  1  
   
Загрузка...
 
Автор Сообщение

Umakiro

avatar Umakiro


Frank Morgan - Love, Lost & Found

Жанр: Bop, Hard Bop
Страна-производитель диска: USA
Год издания диска: 1995
Издатель (лейбл): Telarc
Номер по каталогу: CD-83374
Страна: USA Minneapolis, MN
Аудиокодек: APE (*.ape)
Тип рипа: image+.cue
Битрейт аудио: lossless
Продолжительность: 01:03:29
Источник (релизер): dreadbull
Наличие сканов в содержимом раздачи: да
01. The Nearness of You [07:51]
02. Last Night When We Were Young [05:09]
03. What Is This Thing Called Love [05:55]
04. Skylark [04:56]
05. Once I Loved [07:50]
06. I Can't Get Started With You [05:04]
07. It's Only a Paper Moon [04:35]
08. My One and Only Love [05:35]
09. Someday My Prince Will Come [04:49]
10. All the Things You Are [05:12]
11. Don't Blame Me [06:33]

Recorded at Conway Studios, Studio A, Hollywood, California on March 7-9, 1995
 
EAC extraction logfile from 2. November 2010, 15:52 for CDFrank Morgan / Love, Lost & Found

Used drive : PLEXTOR DVDR PX-750A Adapter: 0 ID: 1Read mode : Secure with NO C2, accurate stream, disable cacheRead offset correction : 102Overread into Lead-In and Lead-Out : No

Used output format : Internal WAV Routines 44.100 Hz; 16 Bit; Stereo

Other options : Fill up missing offset samples with silence : Yes Delete leading and trailing silent blocks : No Installed external ASPI interface

Range status and errorsSelected range Filename L:\emule temp\свежачок\ОТСЛУШАНО\1НОВОЕ\Frank Morgan - Love, Lost & Found (1995, Telarc) [eac-ape-scans] byDrBull\CDImage.wav

Peak level 100.0 % Range quality 100.0 % CRC D3B60B41 Copy OK

No errors occured

End of status report
 
CATALOG 0000000000000PERFORMER "Frank Morgan"TITLE "Love, Lost & Found"FILE "CDImage.wav" WAVE TRACK 01 AUDIO TITLE "The Nearness of You" PERFORMER "Frank Morgan" INDEX 01 00:00:00 TRACK 02 AUDIO TITLE "Last Night When We Were Young" PERFORMER "Frank Morgan" INDEX 00 07:51:25 INDEX 01 07:55:03 TRACK 03 AUDIO TITLE "What Is This Thing Called Love" PERFORMER "Frank Morgan" INDEX 00 13:00:25 INDEX 01 13:04:18 TRACK 04 AUDIO TITLE "Skylark" PERFORMER "Frank Morgan" INDEX 00 18:55:25 INDEX 01 19:01:63 TRACK 05 AUDIO TITLE "Once I Loved" PERFORMER "Frank Morgan" INDEX 00 23:51:25 INDEX 01 23:54:25 TRACK 06 AUDIO TITLE "I Can't Get Started With You" PERFORMER "Frank Morgan" INDEX 00 31:41:25 INDEX 01 31:46:38 TRACK 07 AUDIO TITLE "It's Only a Paper Moon" PERFORMER "Frank Morgan" INDEX 00 36:45:25 INDEX 01 36:48:33 TRACK 08 AUDIO TITLE "My One and Only Love" PERFORMER "Frank Morgan" INDEX 00 41:20:25 INDEX 01 41:22:53 TRACK 09 AUDIO TITLE "Someday My Prince Will Come" PERFORMER "Frank Morgan" INDEX 00 46:55:25 INDEX 01 46:58:63 TRACK 10 AUDIO TITLE "All the Things You Are" PERFORMER "Frank Morgan" INDEX 00 51:44:25 INDEX 01 51:47:15 TRACK 11 AUDIO TITLE "Don't Blame Me" PERFORMER "Frank Morgan" INDEX 00 56:56:25 INDEX 01 56:59:35
Frank Morgan (alto saxophone)
Cedar Walton (piano)
Ray Brown (bass)
Billy Higgins (drums)


Трекер:  [ 29-Янв-2012 14:48 ]

  

Скачать .torrent

Размер .torrent файла 12 KB


Размер: 295 MB
Хэш (hash) релиза: 7e5e42992251cbf0ac1d26d0f2bc9a00073ac92f

Еще никто не оставлял запись к записи скачать торрент Frank Morgan - Love, Lost & Found - 1995, APE . Будь первым!

!Обратная связь