Скачать через торрент музыку The Beaujolais Band - Talk Talk And More Talk - 1996, APE бесплатно без регистрации torrent

Если у вас наблюдаются проблемы со скриншотами, переходом по ссылками, скачиванием торрентов - проблемы в блокировщике рекламы AdBlock. #хорошегоДня!


Статистика раздачи
Размер:  300 MB   |    Зарегистрирован:  5 лет 8 месяцев   |    .torrent скачан:  21 раз   |   
Раздают:  1  
   
Загрузка...
 
Автор Сообщение

Umakiro

avatar Umakiro


The Beaujolais Band - Talk Talk And More Talk

Жанр: Afro-Cuban Jazz, Latin jazz
Страна-производитель диска: USA
Год издания диска: 1996
Издатель (лейбл): Hollywood/Acid Jazz
Номер по каталогу: AJ-68026-2
Страна: Harrogate, Yorkshire, England
Аудиокодек: APE (*.ape)
Тип рипа: image+.cue
Битрейт аудио: lossless
Продолжительность: 00:52:00
Источник (релизер): dreadbull
Наличие сканов в содержимом раздачи: да
01. Compassion [03:06]
02. The New World [05:04]
03. Child Talk [04:27]
04. El Monte [06:16]
05. Milestones [04:41]
06. Third Man [04:36]
07. Riffing For Gal [05:15]
08. Sister Grace [05:45]
09. Too Shy To Try [05:46]
10. La Malanga [05:14]
11. (bonus track) [01:50]
 
EAC extraction logfile from 22. January 2011, 13:30 for CDThe Beaujolais Band / Talk Talk and more Talk

Used drive : ASUS DRW-22B2L Adapter: 0 ID: 1Read mode : Secure with NO C2, accurate stream, disable cacheRead offset correction : 6Overread into Lead-In and Lead-Out : No

Used output format : Internal WAV Routines 44.100 Hz; 16 Bit; Stereo

Other options : Fill up missing offset samples with silence : Yes Delete leading and trailing silent blocks : No Installed external ASPI interface

Range status and errorsSelected range Filename D:\Donkey Files\The Beaujolais Band - Talk Talk and More Talk (1996, Hollywood) [eac-ape-scans] byDrBull\CDImage.wav

Peak level 100.0 % Range quality 99.9 % CRC F2367A38 Copy OK

No errors occured

End of status report
 
CATALOG 0000000000000PERFORMER "The Beaujolais Band"TITLE "Talk Talk and more Talk"FILE "CDImage.wav" WAVE TRACK 01 AUDIO TITLE "Compassion" PERFORMER "The Beaujolais Band" INDEX 01 00:00:00 TRACK 02 AUDIO TITLE "The New World" PERFORMER "The Beaujolais Band" INDEX 01 03:06:57 TRACK 03 AUDIO TITLE "Child Talk" PERFORMER "The Beaujolais Band" INDEX 00 08:10:35 INDEX 01 08:12:00 TRACK 04 AUDIO TITLE "El Monte" PERFORMER "The Beaujolais Band" INDEX 00 12:37:17 INDEX 01 12:39:17 TRACK 05 AUDIO TITLE "Milestones" PERFORMER "The Beaujolais Band" INDEX 00 18:53:60 INDEX 01 18:54:70 TRACK 06 AUDIO TITLE "Third Man" PERFORMER "The Beaujolais Band" INDEX 00 23:34:60 INDEX 01 23:36:20 TRACK 07 AUDIO TITLE "Riffing For Gal" PERFORMER "The Beaujolais Band" INDEX 00 28:10:70 INDEX 01 28:12:25 TRACK 08 AUDIO TITLE "Sister Grace" PERFORMER "The Beaujolais Band" INDEX 00 33:25:05 INDEX 01 33:26:22 TRACK 09 AUDIO TITLE "Too Shy To Try" PERFORMER "The Beaujolais Band" INDEX 00 39:10:07 INDEX 01 39:11:37 TRACK 10 AUDIO TITLE "La Malanga" PERFORMER "The Beaujolais Band" INDEX 01 44:56:17 TRACK 11 AUDIO TITLE "(bonus track)" PERFORMER "The Beaujolais Band" INDEX 00 50:10:05 INDEX 01 50:12:22
Roger Beaujolais - vibraphone & marimba, cymbals & chimes (#1,10), synths (#2);
Simon Edwards - bass;
Roland Perrin - piano, keyboards;
Dave Pattman - drums, percussion;
Pete Eckford - congas.
Guests:
Roy Dodds - drums (#3,8);
Sid Gauld - trumpet (#5,7);
Paul Taylor - trombone (#5,7).


Трекер:  [ 29-Янв-2012 14:48 ]

  

Скачать .torrent

Размер .torrent файла 12 KB


Размер: 300 MB
Хэш (hash) релиза: a9cbb40b9f14f519189553202eb1f78b59d566cc

Еще никто не оставлял запись к записи скачать торрент The Beaujolais Band - Talk Talk And More Talk - 1996, APE . Будь первым!

!Обратная связь