Скачать через торрент музыку Mongo Santamaria - At the Black Hawk - 1994, APE бесплатно без регистрации torrent

Если у вас наблюдаются проблемы со скриншотами, переходом по ссылками, скачиванием торрентов - проблемы в блокировщике рекламы AdBlock. #хорошегоДня!


Статистика раздачи
Размер:  478 MB   |    Зарегистрирован:  5 лет 8 месяцев   |    .torrent скачан:  30 раз   |   
Раздают:  1  
   
Загрузка...
 
Автор Сообщение

Umakiro

avatar Umakiro


Mongo Santamaria - At the Black Hawk

Жанр: Afro-Cuban Jazz, Latin Jazz
Страна-производитель диска: E.U
Год издания диска: 1994
Издатель (лейбл): Fantasy
Номер по каталогу: 00025218243421
Страна: Havana, Cuba
Аудиокодек: APE (*.ape)
Тип рипа: image+.cue
Битрейт аудио: lossless
Продолжительность: 01:12:38
Источник (релизер): dreadbull
Наличие сканов в содержимом раздачи: да
01. Bluchanga [07:56]
02. Tenderly [04:05]
03. Descarga at the Black Hawk [07:32]
04. Bacoso [08:53]
05. Sabor [04:07]
06. All the Things You Are [04:56]
07. Pachanga Twist [03:27]
08. Las Guajiras [07:48]
09. Para Ti [03:04]
10. Body and Soul [05:41]
11. Merengue Changa [03:50]
12. Dulce Sueсo [02:38]
13. Mambo Terrifico [02:54]
14. Close Your Eyes [05:47]

Recording information: Black Hawk, San Francisco, CA (1962)
 
EAC extraction logfile from 9. June 2010, 17:39 for CDMongo Santamaria / At the Blackhawk

Used drive : PLEXTOR DVDR PX-750A Adapter: 0 ID: 1Read mode : Secure with NO C2, accurate stream, disable cacheRead offset correction : 102Overread into Lead-In and Lead-Out : No

Used output format : Internal WAV Routines 44.100 Hz; 16 Bit; Stereo

Other options : Fill up missing offset samples with silence : Yes Delete leading and trailing silent blocks : No Installed external ASPI interface

Range status and errorsSelected range Filename E:\Donkey Files\Mongo Santamaria at the Black Hawk (1962, Fantasy) [eac-ape-scans] byDrBull\CDImage.wav

Peak level 100.0 % Range quality 100.0 % CRC 3CF3783D Copy OK

No errors occured

End of status report
 
CATALOG 0025218243421PERFORMER "Mongo Santamaria"TITLE "At the Blackhawk"FILE "CDImage.wav" WAVE TRACK 01 AUDIO TITLE "Bluchanga" PERFORMER "Mongo Santamaria" ISRC USFI86400422 INDEX 01 00:00:00 TRACK 02 AUDIO TITLE "Tenderly" PERFORMER "Mongo Santamaria" ISRC USFI86400423 INDEX 00 07:56:43 INDEX 01 08:00:08 TRACK 03 AUDIO TITLE "Descarga at the Black Hawk" PERFORMER "Mongo Santamaria" ISRC USFI86400424 INDEX 00 12:01:30 INDEX 01 12:04:48 TRACK 04 AUDIO TITLE "Bacoso" PERFORMER "Mongo Santamaria" ISRC USFI86400425 INDEX 00 19:33:20 INDEX 01 19:35:13 TRACK 05 AUDIO TITLE "Sabor" PERFORMER "Mongo Santamaria" ISRC USFI86400426 INDEX 00 28:26:58 INDEX 01 28:30:05 TRACK 06 AUDIO TITLE "All the Things You Are" PERFORMER "Mongo Santamaria" ISRC USFI86400427 INDEX 00 32:33:50 INDEX 01 32:35:35 TRACK 07 AUDIO TITLE "Pachanga Twist" PERFORMER "Mongo Santamaria" ISRC USFI86201151 INDEX 00 37:29:40 INDEX 01 37:32:63 TRACK 08 AUDIO TITLE "Las Guajiras" PERFORMER "Mongo Santamaria" ISRC USFI86201152 INDEX 00 40:56:68 INDEX 01 41:00:18 TRACK 09 AUDIO TITLE "Para Ti" PERFORMER "Mongo Santamaria" ISRC USFI86200042 INDEX 00 48:44:05 INDEX 01 48:47:20 TRACK 10 AUDIO TITLE "Body and Soul" PERFORMER "Mongo Santamaria" ISRC USFI86201154 INDEX 00 51:48:50 INDEX 01 51:51:60 TRACK 11 AUDIO TITLE "Merengue Changa" PERFORMER "Mongo Santamaria" ISRC USFI86201155 INDEX 00 57:29:70 INDEX 01 57:32:40 TRACK 12 AUDIO TITLE "Dulce Sueсo" PERFORMER "Mongo Santamaria" ISRC USFI86201156 INDEX 00 61:19:10 INDEX 01 61:21:38 TRACK 13 AUDIO TITLE "Mambo Terrifico" PERFORMER "Mongo Santamaria" ISRC USFI86201157 INDEX 00 63:57:15 INDEX 01 64:00:25 TRACK 14 AUDIO TITLE "Close Your Eyes" PERFORMER "Mongo Santamaria" ISRC USFI86201158 INDEX 00 66:51:35 INDEX 01 66:54:73
Mongo Santamaría - conga, bongó;
Pat Patrick - baritone sax (#9);
José "Chombo" Silva - tenor sax (#1-14); violin (#7-14);
Rolando Lozano - wooden flute;
João Donato - piano, trombone;
René "El Látigo" Hernández - piano (#7-14);
Pupi Legarreta - violin;
Victor Venegas - bass;
Nicolás "Cuco" Martínez - timbales (#1-6), percussion (#7-14);
Willie Bobo - timbales;
Julito Collazo - percussion;
Rudy Calzado - lead vocals.


Трекер:  [ 29-Янв-2012 14:48 ]

  

Скачать .torrent

Размер .torrent файла 19 KB


Размер: 478 MB
Хэш (hash) релиза: 15b6561aaea6c850feb28612dbca972130f685cd

Еще никто не оставлял запись к записи скачать торрент Mongo Santamaria - At the Black Hawk - 1994, APE . Будь первым!

!Обратная связь