Скачать через торрент музыку Eddie Henderson Quartet - Echoes: Live At The Sunside - 2003, WavPack бесплатно без регистрации torrent

Если у вас наблюдаются проблемы со скриншотами, переходом по ссылками, скачиванием торрентов - проблемы в блокировщике рекламы AdBlock. #хорошегоДня!


Статистика раздачи
Размер:  373 MB   |    Зарегистрирован:  5 лет 8 месяцев   |    .torrent скачан:  25 раз   |   
Раздают:  1  
   
Загрузка...
 
Автор Сообщение

Umakiro

avatar Umakiro


Eddie Henderson Quartet - Echoes: Live At The Sunside

Жанр: Post-Bop
Страна-производитель диска: France
Год издания диска: 2003
Издатель (лейбл): Marge
Номер по каталогу: 34
Страна: US New York
Аудиокодек: WavPack (*.wv)
Тип рипа: image+.cue
Битрейт аудио: lossless
Продолжительность: 01:16:00
Источник (релизер): ffsf
Наличие сканов в содержимом раздачи: нет
01. On Green Dolphin Street [12:01]
02. Dubai [12:48]
03. Oasis [11:21]
04. Lost [10:12]
05. Sand Storm [09:30]
06. Tender You [05:58]
07. Dolphin Dance [14:10]

Recorded on July 3rd 2003 at the Sunside in Paris
 
Exact Audio Copy V0.99 prebeta 5 from 4. May 2009

EAC extraction logfile from 19. February 2010, 19:49

Eddie Henderson Quartet / Echoes

Used drive : MATSHITADVD-ROM SR-8588 Adapter: 1 ID: 1

Read mode : SecureUtilize accurate stream : YesDefeat audio cache : YesMake use of C2 pointers : No

Read offset correction : 103Overread into Lead-In and Lead-Out : NoFill up missing offset samples with silence : YesDelete leading and trailing silent blocks : NoNull samples used in CRC calculations : YesUsed interface : Installed external ASPI interface

Used output format : Internal WAV RoutinesSample format : 44.100 Hz; 16 Bit; Stereo

TOC of the extracted CD

Track | Start | Length | Start sector | End sector --------------------------------------------------------- 1 | 0:00.00 | 12:01.55 | 0 | 54129 2 | 12:01.55 | 12:47.62 | 54130 | 111716 3 | 24:49.42 | 11:20.53 | 111717 | 162769 4 | 36:10.20 | 10:12.27 | 162770 | 208696 5 | 46:22.47 | 9:30.26 | 208697 | 251472 6 | 55:52.73 | 5:57.04 | 251473 | 278251 7 | 61:50.02 | 14:10.11 | 278252 | 342012

Range status and errors

Selected range

Filename C:\EAC\Eddie Henderson Quartet - Echoes.wav

Peak level 100.0 % Range quality 100.0 % Test CRC E51DE1AE Copy CRC E51DE1AE Copy OK

No errors occurred

AccurateRip summary

Track 1 not present in databaseTrack 2 not present in databaseTrack 3 not present in databaseTrack 4 not present in databaseTrack 5 not present in databaseTrack 6 not present in databaseTrack 7 not present in database

None of the tracks are present in the AccurateRip database

End of status report
 
REM GENRE JazzREM DATE 2003REM DISCID 5A11D007REM COMMENT "ExactAudioCopy v0.99pb5"PERFORMER "Eddie Henderson Quartet"TITLE "Echoes"FILE "Eddie Henderson Quartet - Echoes.wav" WAVE TRACK 01 AUDIO TITLE "On Green Dolphin Street" PERFORMER "Eddie Henderson Quartet" INDEX 01 00:00:00 TRACK 02 AUDIO TITLE "Dubai" PERFORMER "Eddie Henderson Quartet" INDEX 01 12:01:55 TRACK 03 AUDIO TITLE "Oasis" PERFORMER "Eddie Henderson Quartet" INDEX 01 24:49:42 TRACK 04 AUDIO TITLE "Lost" PERFORMER "Eddie Henderson Quartet" INDEX 01 36:10:20 TRACK 05 AUDIO TITLE "Sand Storm" PERFORMER "Eddie Henderson Quartet" INDEX 01 46:22:47 TRACK 06 AUDIO TITLE "Tender You" PERFORMER "Eddie Henderson Quartet" INDEX 01 55:52:73 TRACK 07 AUDIO TITLE "Dolphin Dance" PERFORMER "Eddie Henderson Quartet" INDEX 01 61:50:02
Eddie Henderson (trumpet)
Laurent de Wilde (piano)
Gilles Naturel (double bass)
Simon Goubert (drums)


Трекер:  [ 29-Янв-2012 14:47 ]

  

Скачать .torrent

Размер .torrent файла 15 KB


Размер: 373 MB
Хэш (hash) релиза: d348f1705e6e87e9c7521dcd4cb277e00c0401e2

Еще никто не оставлял запись к записи скачать торрент Eddie Henderson Quartet - Echoes: Live At The Sunside - 2003, WavPack . Будь первым!

!Обратная связь