Скачать через торрент музыку Joe Henderson - Canyon Lady - 1997, APE бесплатно без регистрации torrent

Если у вас наблюдаются проблемы со скриншотами, переходом по ссылками, скачиванием торрентов - проблемы в блокировщике рекламы AdBlock. #хорошегоДня!


Статистика раздачи
Размер:  223 MB   |    Зарегистрирован:  5 лет 8 месяцев   |    .torrent скачан:  29 раз   |   
Раздают:  1  
   
Загрузка...
 
Автор Сообщение

Umakiro

avatar Umakiro


Joe Henderson - Canyon Lady

Жанр: Post-Bop, Fusion
Страна-производитель диска: E.U
Год издания диска: 1997
Издатель (лейбл): Milestone/OJC
Номер по каталогу: 00025218694926
Страна: US Lima, OH
Аудиокодек: APE (*.ape)
Тип рипа: image+.cue
Битрейт аудио: lossless
Продолжительность: 00:37:54
Источник (релизер): dreadbull
Наличие сканов в содержимом раздачи: да
01. Tres Palabras [10:09]
02. Las Palmas [09:58]
03. Canyon Lady [09:08]
04. All Things Considered [08:39]

Recorded at Fantasy Studios, Berkeley, California in October 1973
 
EAC extraction logfile from 27. July 2008, 10:03 for CDJoe Henderson / Canyon Lady

Used drive : PLEXTOR DVDR PX-750A Adapter: 0 ID: 1Read mode : Secure with NO C2, accurate stream, disable cacheRead offset correction : 102Overread into Lead-In and Lead-Out : No

Used output format : Internal WAV Routines 44.100 Hz; 16 Bit; Stereo

Other options : Fill up missing offset samples with silence : Yes Delete leading and trailing silent blocks : No Installed external ASPI interface

Range status and errorsSelected range Filename E:\Donkey Files\Joe Henderson - Canyon Lady (1973, Milestone, OJC) [eac-ape-covers]\CDImage.wav

Peak level 100.0 % Range quality 100.0 % CRC 85E000E6 Copy OK

No errors occured

End of status report
 
CATALOG 0025218694926PERFORMER "Joe Henderson"TITLE "Canyon Lady"FILE "CDImage.wav" WAVE TRACK 01 AUDIO TITLE "Tres Palabras" PERFORMER "Joe Henderson" ISRC USFI87500536 INDEX 01 00:00:00 TRACK 02 AUDIO TITLE "Las Palmas" PERFORMER "Joe Henderson" ISRC USFI87500537 INDEX 00 10:09:37 INDEX 01 10:11:45 TRACK 03 AUDIO TITLE "Canyon Lady" PERFORMER "Joe Henderson" ISRC USFI87500538 INDEX 00 20:07:42 INDEX 01 20:09:45 TRACK 04 AUDIO TITLE "All Things Considered" PERFORMER "Joe Henderson" ISRC USFI87500539 INDEX 00 29:15:47 INDEX 01 29:17:15
Joe Henderson (tenor saxophone);
Hadley Caliman (flute, tenor saxophone);
Ray Pizzi, Vince Denham (flute);
Luis Gasca (trumpet, flugelhorn, piano, drums, percussion);
Oscar Brashear, John Hunt (trumpet);
Julian Priester, Nicholas Ten Broeck (trombone);
George Duke (piano, electric piano, drums, percussion);
Mark Levine (piano); Eric Gravatt (drums);
Francisco Aguabella, Victor Pantoja (congas);
Carmelo Garcia (timbales).


Трекер:  [ 29-Янв-2012 14:47 ]

  

Скачать .torrent

Размер .torrent файла 18 KB


Размер: 223 MB
Хэш (hash) релиза: 1a4ba539e03c9b4c654a6a4acd6c49973fe503ec

Еще никто не оставлял запись к записи скачать торрент Joe Henderson - Canyon Lady - 1997, APE . Будь первым!

!Обратная связь