Скачать через торрент музыку Jerry Bergonzi - Jerry On Red - 1989, FLAC бесплатно без регистрации torrent

Если у вас наблюдаются проблемы со скриншотами, переходом по ссылками, скачиванием торрентов - проблемы в блокировщике рекламы AdBlock. #хорошегоДня!


Статистика раздачи
Размер:  298 MB   |    Зарегистрирован:  5 лет 8 месяцев   |    .torrent скачан:  28 раз   |   
Раздают:  1  
   
Загрузка...
 
Автор Сообщение

Umakiro

avatar Umakiro


Jerry Bergonzi - Jerry On Red

Жанр: Post-Bop
Страна-производитель диска: Italy
Год издания диска: 1989
Издатель (лейбл): Red Records
Номер по каталогу: CD 123224 2
Страна: US Boston, MA
Аудиокодек: FLAC (*.flac)
Тип рипа: tracks+.cue
Битрейт аудио: lossless
Продолжительность: 00:51:02
Источник (релизер): Nefertiti
Наличие сканов в содержимом раздачи: да
01. In Your Own Sweet Way [07:49]
02. Theme For Ernie [07:30]
03. Pannonica [06:36]
04. You're My Everything [04:02]
05. Si Senora [06:59]
06. Surrender [05:52]
07. Dodo's Waltz [05:37]
08. I Want To Talk About You [06:37]

Recording information: Barigozzi Studio, Milano, Italy (05/1988)
 
Exact Audio Copy V0.99 prebeta 4 from 23. January 2008

EAC extraction logfile from 4. April 2008, 23:51

Jerry Bergonzi / Jerry On Red

Used drive : PLEXTOR CD-R PREMIUM2 Adapter: 0 ID: 1

Read mode : SecureUtilize accurate stream : YesDefeat audio cache : YesMake use of C2 pointers : No

Read offset correction : 30Overread into Lead-In and Lead-Out : YesFill up missing offset samples with silence : YesDelete leading and trailing silent blocks : NoNull samples used in CRC calculations : YesUsed interface : Installed external ASPI interfaceGap handling : Appended to previous track

Used output format : User Defined EncoderSelected bitrate : 128 kBit/sQuality : HighAdd ID3 tag : NoCommand line compressor : C:\Programme\FLAC\flac.exeAdditional command line options : -5 -V -T "artist=%a" -T "title=%t" -T "album=%g" -T "date=%y" -T "tracknumber=%n" -T "genre=%m" -T "comment=Exact Audio Copy 0.99pb4, Flac 1.2.1.b -5" %s

TOC of the extracted CD

Track | Start | Length | Start sector | End sector --------------------------------------------------------- 1 | 0:00.33 | 7:49.00 | 33 | 35207 2 | 7:49.33 | 7:30.00 | 35208 | 68957 3 | 15:19.33 | 6:36.00 | 68958 | 98657 4 | 21:55.33 | 4:02.25 | 98658 | 116832 5 | 25:57.58 | 6:59.12 | 116833 | 148269 6 | 32:56.70 | 5:52.38 | 148270 | 174707 7 | 38:49.33 | 5:37.25 | 174708 | 200007 8 | 44:26.58 | 6:37.50 | 200008 | 229832

Track 1

Filename C:\Jerry Bergonzi - Jerry On Red (1989) [FLAC]\01 - In Your Own Sweet Way.wav

Pre-gap length 0:00:02.44

Peak level 74.7 % Track quality 100.0 % Test CRC 4622138F Copy CRC 4622138F Track not present in AccurateRip database Copy OK

Track 2

Filename C:\Jerry Bergonzi - Jerry On Red (1989) [FLAC]\02 - Theme For Ernie.wav

Peak level 67.7 % Track quality 100.0 % Test CRC 5CF7737A Copy CRC 5CF7737A Track not present in AccurateRip database Copy OK

Track 3

Filename C:\Jerry Bergonzi - Jerry On Red (1989) [FLAC]\03 - Pannonica.wav

Peak level 74.5 % Track quality 100.0 % Test CRC 41FD098B Copy CRC 41FD098B Track not present in AccurateRip database Copy OK

Track 4

Filename C:\Jerry Bergonzi - Jerry On Red (1989) [FLAC]\04 - You're My Everything.wav

Peak level 80.7 % Track quality 100.0 % Test CRC 8ED7D13A Copy CRC 8ED7D13A Track not present in AccurateRip database Copy OK

Track 5

Filename C:\Jerry Bergonzi - Jerry On Red (1989) [FLAC]\05 - Si Senora.wav

Peak level 85.0 % Track quality 100.0 % Test CRC 2179EC35 Copy CRC 2179EC35 Track not present in AccurateRip database Copy OK

Track 6

Filename C:\Jerry Bergonzi - Jerry On Red (1989) [FLAC]\06 - Surrender.wav

Peak level 80.2 % Track quality 100.0 % Test CRC AD8F75AA Copy CRC AD8F75AA Track not present in AccurateRip database Copy OK

Track 7

Filename C:\Jerry Bergonzi - Jerry On Red (1989) [FLAC]\07 - Dodo's Waltz.wav

Peak level 87.6 % Track quality 100.0 % Test CRC FC729278 Copy CRC FC729278 Track not present in AccurateRip database Copy OK

Track 8

Filename C:\Jerry Bergonzi - Jerry On Red (1989) [FLAC]\08 - I Want To Talk About You.wav

Peak level 93.1 % Track quality 100.0 % Test CRC 45AF86EE Copy CRC 45AF86EE Track not present in AccurateRip database Copy OK

None of the tracks are present in the AccurateRip database

No errors occurred

End of status report
 
REM GENRE JazzREM DATE 1989REM DISCID 720BF808REM COMMENT "ExactAudioCopy v0.99pb4"PERFORMER "Jerry Bergonzi"TITLE "Jerry On Red"FILE "01 - In Your Own Sweet Way.flac" WAVE TRACK 01 AUDIO TITLE "In Your Own Sweet Way" PERFORMER "Jerry Bergonzi" PREGAP 00:00:33 INDEX 01 00:00:00FILE "02 - Theme For Ernie.flac" WAVE TRACK 02 AUDIO TITLE "Theme For Ernie" PERFORMER "Jerry Bergonzi" INDEX 01 00:00:00FILE "03 - Pannonica.flac" WAVE TRACK 03 AUDIO TITLE "Pannonica" PERFORMER "Jerry Bergonzi" INDEX 01 00:00:00FILE "04 - You're My Everything.flac" WAVE TRACK 04 AUDIO TITLE "You're My Everything" PERFORMER "Jerry Bergonzi" INDEX 01 00:00:00FILE "05 - Si Senora.flac" WAVE TRACK 05 AUDIO TITLE "Si Senora" PERFORMER "Jerry Bergonzi" INDEX 01 00:00:00FILE "06 - Surrender.flac" WAVE TRACK 06 AUDIO TITLE "Surrender" PERFORMER "Jerry Bergonzi" INDEX 01 00:00:00FILE "07 - Dodo's Waltz.flac" WAVE TRACK 07 AUDIO TITLE "Dodo's Waltz" PERFORMER "Jerry Bergonzi" INDEX 01 00:00:00FILE "08 - I Want To Talk About You.flac" WAVE TRACK 08 AUDIO TITLE "I Want To Talk About You" PERFORMER "Jerry Bergonzi" INDEX 01 00:00:00
Jerry Bergonzi (tenor saxophone)
Salvatore Bonafede (piano)
Salvatore Tranchini (drums)


Трекер:  [ 29-Янв-2012 14:46 ]

  

Скачать .torrent

Размер .torrent файла 13 KB


Размер: 298 MB
Хэш (hash) релиза: b11e92102102dd36c9cc169141b1952ba46e83c9

Еще никто не оставлял запись к записи скачать торрент Jerry Bergonzi - Jerry On Red - 1989, FLAC . Будь первым!

!Обратная связь