Скачать через торрент музыку Doumka Clarinet Ensemble - Afar - 2011, FLAC бесплатно без регистрации torrent

Если у вас наблюдаются проблемы со скриншотами, переходом по ссылками, скачиванием торрентов - проблемы в блокировщике рекламы AdBlock. #хорошегоДня!


Статистика раздачи
Размер:  411 MB   |    Зарегистрирован:  5 лет 8 месяцев   |    .torrent скачан:  33 раза   |   
Раздают:  1  
   
Загрузка...
 
Автор Сообщение

Umakiro

avatar Umakiro


Doumka Clarinet Ensemble - Afar

Жанр: Ethnic Jazz
Страна-производитель диска: Germany
Год издания диска: 2011
Издатель (лейбл): enjarecord
Номер по каталогу: ENJ-9569 2
Страна: France Lyon
Аудиокодек: FLAC (*.flac)
Тип рипа: tracks+.cue
Битрейт аудио: lossless
Продолжительность: 00:59:26
Источник (релизер): jlgt
Наличие сканов в содержимом раздачи: да
01. Treve [04:44]
02. Don Quichotte [04:50]
03. Praia [04:37]
04. Gankino [05:26]
05. Sola'no [00:33]
06. Ces Fiers Seigheurs [05:13]
07. Voilee [06:51]
08. Sables [05:57]
09. Djebel [06:06]
10. Des Bulles [06:50]
11. Sola'no [01:02]
12. Afar (au loin) [07:11]
 
Exact Audio Copy V1.0 beta 2 from 29. April 2011

EAC extraction logfile from 13. January 2012, 18:10

Doumka Clarinet Ensemble / Afar

Used drive : PLEXTOR DVDR PX-L890SA Adapter: 2 ID: 1

Read mode : SecureUtilize accurate stream : YesDefeat audio cache : YesMake use of C2 pointers : No

Read offset correction : 6Overread into Lead-In and Lead-Out : NoFill up missing offset samples with silence : YesDelete leading and trailing silent blocks : NoNull samples used in CRC calculations : YesUsed interface : Native Win32 interface for Win NT & 2000Gap handling : Appended to previous track

Used output format : User Defined EncoderSelected bitrate : 256 kBit/sQuality : HighAdd ID3 tag : NoCommand line compressor : C:\Program Files (x86)\Exact Audio Copy\FLAC\FLAC.EXEAdditional command line options : -8 -V -T "ARTIST=%artist%" -T "TITLE=%title%" -T "ALBUM=%albumtitle%" -T "DATE=%year%" -T "TRACKNUMBER=%tracknr%" -T "TOTALTRACKS=%numtracks%" -T "GENRE=%genre%" -T "ALBUMARTIST=%albumartist%" -T "ALBUM ARTIST=%albumartist%

TOC of the extracted CD

Track | Start | Length | Start sector | End sector --------------------------------------------------------- 1 | 0:00.00 | 4:44.22 | 0 | 21321 2 | 4:44.22 | 4:50.69 | 21322 | 43140 3 | 9:35.16 | 4:37.58 | 43141 | 63973 4 | 14:12.74 | 5:26.31 | 63974 | 88454 5 | 19:39.30 | 0:33.02 | 88455 | 90931 6 | 20:12.32 | 5:13.37 | 90932 | 114443 7 | 25:25.69 | 6:51.39 | 114444 | 145307 8 | 32:17.33 | 5:57.48 | 145308 | 172130 9 | 38:15.06 | 6:06.24 | 172131 | 199604 10 | 44:21.30 | 6:50.37 | 199605 | 230391 11 | 51:11.67 | 1:02.60 | 230392 | 235101 12 | 52:14.52 | 7:11.65 | 235102 | 267491

Track 1

Filename F:\Flac Rips\01 - Treve.wav

Pre-gap length 0:00:02.00

Peak level 86.6 % Extraction speed 3.7 X Track quality 100.0 % Test CRC C5010EBC Copy CRC C5010EBC Accurately ripped (confidence 1) [9373C2A3] (AR v2) Copy OK

Track 2

Filename F:\Flac Rips\02 - Don Quichotte.wav

Peak level 95.0 % Extraction speed 4.2 X Track quality 100.0 % Test CRC 33BA4953 Copy CRC 33BA4953 Accurately ripped (confidence 1) [37D2AED7] (AR v2) Copy OK

Track 3

Filename F:\Flac Rips\03 - Praia.wav

Pre-gap length 0:00:03.47

Peak level 71.8 % Extraction speed 4.6 X Track quality 100.0 % Test CRC 5CCBFA89 Copy CRC 5CCBFA89 Accurately ripped (confidence 1) [CCE82C81] (AR v2) Copy OK

Track 4

Filename F:\Flac Rips\04 - Gankino.wav

Pre-gap length 0:00:01.39

Peak level 98.8 % Extraction speed 5.0 X Track quality 100.0 % Test CRC FCEB5622 Copy CRC FCEB5622 Accurately ripped (confidence 1) [0901C271] (AR v2) Copy OK

Track 5

Filename F:\Flac Rips\05 - Sola'no.wav

Peak level 39.5 % Extraction speed 2.7 X Track quality 100.0 % Test CRC 71586D14 Copy CRC 71586D14 Accurately ripped (confidence 1) [8135B443] (AR v2) Copy OK

Track 6

Filename F:\Flac Rips\06 - Ces Fiers Seigheurs.wav

Peak level 98.8 % Extraction speed 5.4 X Track quality 100.0 % Test CRC 2F8B9EF1 Copy CRC 2F8B9EF1 Accurately ripped (confidence 1) [2953799A] (AR v2) Copy OK

Track 7

Filename F:\Flac Rips\07 - Voilee.wav

Pre-gap length 0:00:01.69

Peak level 69.9 % Extraction speed 6.0 X Track quality 100.0 % Test CRC E1E463B8 Copy CRC E1E463B8 Accurately ripped (confidence 1) [64108068] (AR v2) Copy OK

Track 8

Filename F:\Flac Rips\08 - Sables.wav

Peak level 95.9 % Extraction speed 6.3 X Track quality 100.0 % Test CRC EC6DE85C Copy CRC EC6DE85C Accurately ripped (confidence 1) [B7532F88] (AR v2) Copy OK

Track 9

Filename F:\Flac Rips\09 - Djebel.wav

Pre-gap length 0:00:02.05

Peak level 96.8 % Extraction speed 6.7 X Track quality 100.0 % Test CRC 80368EEC Copy CRC 80368EEC Accurately ripped (confidence 1) [0159930E] (AR v2) Copy OK

Track 10

Filename F:\Flac Rips\10 - Des Bulles.wav

Peak level 95.2 % Extraction speed 7.2 X Track quality 100.0 % Test CRC 1B01E1A4 Copy CRC 1B01E1A4 Accurately ripped (confidence 1) [E92D5FB6] (AR v2) Copy OK

Track 11

Filename F:\Flac Rips\11 - Sola'no.wav

Peak level 59.2 % Extraction speed 4.9 X Track quality 100.0 % Test CRC B6D8BFE4 Copy CRC B6D8BFE4 Accurately ripped (confidence 1) [193AA11D] (AR v2) Copy OK

Track 12

Filename F:\Flac Rips\12 - Afar (au loin).wav

Peak level 85.9 % Extraction speed 7.6 X Track quality 100.0 % Test CRC E0DCDD68 Copy CRC E0DCDD68 Accurately ripped (confidence 1) [D45294C2] (AR v2) Copy OK

All tracks accurately ripped

No errors occurred

End of status report

==== Log checksum 38885FF80A35C10352B7FDF697C874E3D429FB71D31EF54AD1B2C0FCFE0BEE33 ====
 
REM GENRE JazzREM DATE 2011REM DISCID AD0DEE0CREM COMMENT "ExactAudioCopy v1.0b2"PERFORMER "Doumka Clarinet Ensemble"TITLE "Afar"FILE "01 - Treve.wav" WAVE TRACK 01 AUDIO TITLE "Treve" PERFORMER "Doumka Clarinet Ensemble" INDEX 01 00:00:00FILE "02 - Don Quichotte.wav" WAVE TRACK 02 AUDIO TITLE "Don Quichotte" PERFORMER "Doumka Clarinet Ensemble" INDEX 01 00:00:00 TRACK 03 AUDIO TITLE "Praia" PERFORMER "Doumka Clarinet Ensemble" INDEX 00 04:47:22FILE "03 - Praia.wav" WAVE INDEX 01 00:00:00 TRACK 04 AUDIO TITLE "Gankino" PERFORMER "Doumka Clarinet Ensemble" INDEX 00 04:36:19FILE "04 - Gankino.wav" WAVE INDEX 01 00:00:00FILE "05 - Sola'no.wav" WAVE TRACK 05 AUDIO TITLE "Sola'no" PERFORMER "Doumka Clarinet Ensemble" INDEX 01 00:00:00FILE "06 - Ces Fiers Seigheurs.wav" WAVE TRACK 06 AUDIO TITLE "Ces Fiers Seigheurs" PERFORMER "Doumka Clarinet Ensemble" INDEX 01 00:00:00 TRACK 07 AUDIO TITLE "Voilee" PERFORMER "Doumka Clarinet Ensemble" INDEX 00 05:11:43FILE "07 - Voilee.wav" WAVE INDEX 01 00:00:00FILE "08 - Sables.wav" WAVE TRACK 08 AUDIO TITLE "Sables" PERFORMER "Doumka Clarinet Ensemble" INDEX 01 00:00:00 TRACK 09 AUDIO TITLE "Djebel" PERFORMER "Doumka Clarinet Ensemble" INDEX 00 05:55:43FILE "09 - Djebel.wav" WAVE INDEX 01 00:00:00FILE "10 - Des Bulles.wav" WAVE TRACK 10 AUDIO TITLE "Des Bulles" PERFORMER "Doumka Clarinet Ensemble" INDEX 01 00:00:00FILE "11 - Sola'no.wav" WAVE TRACK 11 AUDIO TITLE "Sola'no" PERFORMER "Doumka Clarinet Ensemble" INDEX 01 00:00:00FILE "12 - Afar (au loin).wav" WAVE TRACK 12 AUDIO TITLE "Afar (au loin)" PERFORMER "Doumka Clarinet Ensemble" INDEX 01 00:00:00
Hervé Bouchardy clarinet, piccolo clarinet, basset horn
Alexis Ciesla clarinet, bass clarinet
Franck René clarinet, bass clarinet
Christophe Gauvert double bass, guitar
Christophe Durand drum set, cajon, percussion


Трекер:  [ 29-Янв-2012 14:46 ]

  

Скачать .torrent

Размер .torrent файла 17 KB


Размер: 411 MB
Хэш (hash) релиза: e8dd030285fd00eb0f41db9fed0a8de62631388a

Еще никто не оставлял запись к записи скачать торрент Doumka Clarinet Ensemble - Afar - 2011, FLAC . Будь первым!

!Обратная связь