Скачать через торрент музыку Kenny Burrell - Tenderly: Solo Guitar Concert - 2011, FLAC бесплатно без регистрации torrent

Если у вас наблюдаются проблемы со скриншотами, переходом по ссылками, скачиванием торрентов - проблемы в блокировщике рекламы AdBlock. #хорошегоДня!


Статистика раздачи
Размер:  276 MB   |    Зарегистрирован:  5 лет 8 месяцев   |    .torrent скачан:  39 раз   |   
Раздают:  1  
   
Загрузка...
 
Автор Сообщение

Umakiro

avatar Umakiro


Kenny Burrell - Tenderly: Solo Guitar Concert

Жанр: Straight-Ahead, Mainstream Jazz
Год издания диска: 2011
Издатель (лейбл): High Note
Номер по каталогу: HCD 7227
Страна: USA Detroit, MI
Аудиокодек: FLAC (*.flac)
Тип рипа: tracks+.cue
Битрейт аудио: lossless
Продолжительность: 01:06:35
Источник (релизер): shummuhs
Наличие сканов в содержимом раздачи: нет
01. Tenderly [04:34]
02. Remembering Wes [04:41]
03. Autumn Leaves [03:49]
04. Sproken Introduction [00:15]
05. Billie Holiday Tribute Medley [05:27]
06. A Child is Born [03:59]
07. Spoken Introduction [00:41]
08. What a Wonderful World [03:02]
09. Spoken Introduction [00:11]
10. Soulful Brothers [04:30]
11. Spoken Introduction [00:21]
12. Ellingtonia Montage [07:06]
13. Come on Blues [04:53]
14. Spoken Introduction [00:14]
15. Recado Bossa Nova [04:15]
16. Couplet Romantic [03:40]
17. Spring Can Really Hang You Up the Most [04:03]
18. Spoken Introduction [00:17]
19. Be Yourself [04:32]
20. Come Rain of Come Shine [03:43]
21. Prelude No. 3: Butterflying (Excerpt) [02:23]
 
X Lossless Decoder version 20111214 (138.1)

XLD extraction logfile from 2012-01-19 22:42:32 +0000

Kenny Burrell / Tenderly

Used drive : MATSHITA DVD-R UJ-868 (revision KB19)

Ripper mode : XLD Secure RipperDisable audio cache : OK for the drive with a cache less than 1375KiBMake use of C2 pointers : NORead offset correction : 102Max retry count : 20Gap status : Analyzed, Appended (except HTOA)

TOC of the extracted CD Track | Start | Length | Start sector | End sector --------------------------------------------------------- 1 | 00:00:00 | 04:34:41 | 0 | 20590 2 | 04:34:41 | 04:41:57 | 20591 | 41722 3 | 09:16:23 | 03:49:30 | 41723 | 58927 4 | 13:05:53 | 00:15:24 | 58928 | 60076 5 | 13:21:02 | 05:27:41 | 60077 | 84642 6 | 18:48:43 | 03:59:38 | 84643 | 102605 7 | 22:48:06 | 00:41:72 | 102606 | 105752 8 | 23:30:03 | 03:02:55 | 105753 | 119457 9 | 26:32:58 | 00:11:39 | 119458 | 120321 10 | 26:44:22 | 04:30:38 | 120322 | 140609 11 | 31:14:60 | 00:21:63 | 140610 | 142247 12 | 31:36:48 | 07:06:19 | 142248 | 174216 13 | 38:42:67 | 04:53:42 | 174217 | 196233 14 | 43:36:34 | 00:14:61 | 196234 | 197344 15 | 43:51:20 | 04:15:22 | 197345 | 216491 16 | 48:06:42 | 03:40:49 | 216492 | 233040 17 | 51:47:16 | 04:03:48 | 233041 | 251313 18 | 55:50:64 | 00:17:47 | 251314 | 252635 19 | 56:08:36 | 04:32:69 | 252636 | 273104 20 | 60:41:30 | 03:43:56 | 273105 | 289885 21 | 64:25:11 | 02:23:02 | 289886 | 300612

AccurateRip Summary Disc not found in AccurateRip DB.

All Tracks Album gain : -2.76 dB Peak : 0.966309 Statistics Read error : 0 Jitter error (maybe fixed) : 0 Retry sector count : 0 Damaged sector count : 0

Track 01 Filename : /Users/bmar29/Music/Kenny Burrell - Tenderly (2011) [FLAC]/01 Tenderly.flac Pre-gap length : 00:02:00

Track gain : -4.47 dB Peak : 0.966156 CRC32 hash (test run) : D1DD96D0 CRC32 hash : D1DD96D0 CRC32 hash (skip zero) : BB1AFE94 AccurateRip signature : 80581394 ->Track not present in AccurateRip database. Statistics Read error : 0 Jitter error (maybe fixed) : 0 Retry sector count : 0 Damaged sector count : 0

Track 02 Filename : /Users/bmar29/Music/Kenny Burrell - Tenderly (2011) [FLAC]/02 Remembering Wes.flac Pre-gap length : 00:02:00

Track gain : -2.62 dB Peak : 0.966217 CRC32 hash (test run) : 4519D15A CRC32 hash : 4519D15A CRC32 hash (skip zero) : 948054E1 AccurateRip signature : 7B32A478 ->Track not present in AccurateRip database. Statistics Read error : 0 Jitter error (maybe fixed) : 0 Retry sector count : 0 Damaged sector count : 0

Track 03 Filename : /Users/bmar29/Music/Kenny Burrell - Tenderly (2011) [FLAC]/03 Autumn Leaves.flac Pre-gap length : 00:02:00

Track gain : -7.13 dB Peak : 0.966278 CRC32 hash (test run) : 1A44B1B2 CRC32 hash : 1A44B1B2 CRC32 hash (skip zero) : FEEADB64 AccurateRip signature : 6E5D3356 ->Track not present in AccurateRip database. Statistics Read error : 0 Jitter error (maybe fixed) : 0 Retry sector count : 0 Damaged sector count : 0

Track 04 Filename : /Users/bmar29/Music/Kenny Burrell - Tenderly (2011) [FLAC]/04 Sproken Introduction.flac Pre-gap length : 00:02:00

Track gain : 3.17 dB Peak : 0.423218 CRC32 hash (test run) : F93EC0AD CRC32 hash : F93EC0AD CRC32 hash (skip zero) : 6960759F AccurateRip signature : 3D9B6146 ->Track not present in AccurateRip database. Statistics Read error : 0 Jitter error (maybe fixed) : 0 Retry sector count : 0 Damaged sector count : 0

Track 05 Filename : /Users/bmar29/Music/Kenny Burrell - Tenderly (2011) [FLAC]/05 Billie Holiday Tribute Medley.flac

Track gain : -1.67 dB Peak : 0.966125 CRC32 hash (test run) : 78A5D6C3 CRC32 hash : 78A5D6C3 CRC32 hash (skip zero) : 6A03E325 AccurateRip signature : 4DB72D3C ->Track not present in AccurateRip database. Statistics Read error : 0 Jitter error (maybe fixed) : 0 Retry sector count : 0 Damaged sector count : 0

Track 06 Filename : /Users/bmar29/Music/Kenny Burrell - Tenderly (2011) [FLAC]/06 A Child is Born.flac Pre-gap length : 00:02:00

Track gain : -1.59 dB Peak : 0.966278 CRC32 hash (test run) : A52EE6C6 CRC32 hash : A52EE6C6 CRC32 hash (skip zero) : FD623095 AccurateRip signature : 73A32197 ->Track not present in AccurateRip database. Statistics Read error : 0 Jitter error (maybe fixed) : 0 Retry sector count : 0 Damaged sector count : 0

Track 07 Filename : /Users/bmar29/Music/Kenny Burrell - Tenderly (2011) [FLAC]/07 Spoken Introduction.flac Pre-gap length : 00:02:00

Track gain : 3.06 dB Peak : 0.483185 CRC32 hash (test run) : 2A80039E CRC32 hash : 2A80039E CRC32 hash (skip zero) : 1AAE7DA6 AccurateRip signature : 5F43287E ->Track not present in AccurateRip database. Statistics Read error : 0 Jitter error (maybe fixed) : 0 Retry sector count : 0 Damaged sector count : 0

Track 08 Filename : /Users/bmar29/Music/Kenny Burrell - Tenderly (2011) [FLAC]/08 What a Wonderful World.flac

Track gain : 1.83 dB Peak : 0.719543 CRC32 hash (test run) : 5F814F3C CRC32 hash : 5F814F3C CRC32 hash (skip zero) : F9516A71 AccurateRip signature : B5DBE34E ->Track not present in AccurateRip database. Statistics Read error : 0 Jitter error (maybe fixed) : 0 Retry sector count : 0 Damaged sector count : 0

Track 09 Filename : /Users/bmar29/Music/Kenny Burrell - Tenderly (2011) [FLAC]/09 Spoken Introduction.flac Pre-gap length : 00:02:00

Track gain : -0.09 dB Peak : 0.966095 CRC32 hash (test run) : A593D5F6 CRC32 hash : A593D5F6 CRC32 hash (skip zero) : A55BF0FE AccurateRip signature : 7E90A9C8 ->Track not present in AccurateRip database. Statistics Read error : 0 Jitter error (maybe fixed) : 0 Retry sector count : 0 Damaged sector count : 0

Track 10 Filename : /Users/bmar29/Music/Kenny Burrell - Tenderly (2011) [FLAC]/10 Soulful Brothers.flac

Track gain : -3.90 dB Peak : 0.966156 CRC32 hash (test run) : E2B18B2F CRC32 hash : E2B18B2F CRC32 hash (skip zero) : 0FC08BCF AccurateRip signature : 653DB6CC ->Track not present in AccurateRip database. Statistics Read error : 0 Jitter error (maybe fixed) : 0 Retry sector count : 0 Damaged sector count : 0

Track 11 Filename : /Users/bmar29/Music/Kenny Burrell - Tenderly (2011) [FLAC]/11 Spoken Introduction.flac Pre-gap length : 00:02:00

Track gain : 1.47 dB Peak : 0.522034 CRC32 hash (test run) : 5BE3FC70 CRC32 hash : 5BE3FC70 CRC32 hash (skip zero) : F9D61897 AccurateRip signature : 908311C1 ->Track not present in AccurateRip database. Statistics Read error : 0 Jitter error (maybe fixed) : 0 Retry sector count : 0 Damaged sector count : 0

Track 12 Filename : /Users/bmar29/Music/Kenny Burrell - Tenderly (2011) [FLAC]/12 Ellingtonia Montage.flac

Track gain : -0.87 dB Peak : 0.931915 CRC32 hash (test run) : 23702832 CRC32 hash : 23702832 CRC32 hash (skip zero) : 3545963F AccurateRip signature : 8392C014 ->Track not present in AccurateRip database. Statistics Read error : 0 Jitter error (maybe fixed) : 0 Retry sector count : 0 Damaged sector count : 0

Track 13 Filename : /Users/bmar29/Music/Kenny Burrell - Tenderly (2011) [FLAC]/13 Come on Blues.flac Pre-gap length : 00:02:00

Track gain : -3.35 dB Peak : 0.966248 CRC32 hash (test run) : 80AD2571 CRC32 hash : 80AD2571 CRC32 hash (skip zero) : 08F85558 AccurateRip signature : 233BEB3F ->Track not present in AccurateRip database. Statistics Read error : 0 Jitter error (maybe fixed) : 0 Retry sector count : 0 Damaged sector count : 0

Track 14 Filename : /Users/bmar29/Music/Kenny Burrell - Tenderly (2011) [FLAC]/14 Spoken Introduction.flac Pre-gap length : 00:02:00

Track gain : 5.88 dB Peak : 0.300079 CRC32 hash (test run) : 56A42CF5 CRC32 hash : 56A42CF5 CRC32 hash (skip zero) : E7FE86EA AccurateRip signature : 77FCA199 ->Track not present in AccurateRip database. Statistics Read error : 0 Jitter error (maybe fixed) : 0 Retry sector count : 0 Damaged sector count : 0

Track 15 Filename : /Users/bmar29/Music/Kenny Burrell - Tenderly (2011) [FLAC]/15 Recado Bossa Nova.flac

Track gain : 1.19 dB Peak : 0.966217 CRC32 hash (test run) : C2606AA6 CRC32 hash : C2606AA6 CRC32 hash (skip zero) : C918075C AccurateRip signature : 2C8372E3 ->Track not present in AccurateRip database. Statistics Read error : 0 Jitter error (maybe fixed) : 0 Retry sector count : 0 Damaged sector count : 0

Track 16 Filename : /Users/bmar29/Music/Kenny Burrell - Tenderly (2011) [FLAC]/16 Couplet Romantic.flac Pre-gap length : 00:02:00

Track gain : 0.38 dB Peak : 0.834564 CRC32 hash (test run) : 40333A71 CRC32 hash : 40333A71 CRC32 hash (skip zero) : BD1CF0C9 AccurateRip signature : 0CA2943C ->Track not present in AccurateRip database. Statistics Read error : 0 Jitter error (maybe fixed) : 0 Retry sector count : 0 Damaged sector count : 0

Track 17 Filename : /Users/bmar29/Music/Kenny Burrell - Tenderly (2011) [FLAC]/17 Spring Can Really Hang You Up the Most.flac Pre-gap length : 00:02:00

Track gain : -1.33 dB Peak : 0.816101 CRC32 hash (test run) : 116F76F3 CRC32 hash : 116F76F3 CRC32 hash (skip zero) : 0518DBB1 AccurateRip signature : 5B1D2C2C ->Track not present in AccurateRip database. Statistics Read error : 0 Jitter error (maybe fixed) : 0 Retry sector count : 0 Damaged sector count : 0

Track 18 Filename : /Users/bmar29/Music/Kenny Burrell - Tenderly (2011) [FLAC]/18 Spoken Introduction.flac Pre-gap length : 00:02:00

Track gain : 3.24 dB Peak : 0.611664 CRC32 hash (test run) : 1276A29B CRC32 hash : 1276A29B CRC32 hash (skip zero) : 1CC4CF35 AccurateRip signature : 99DEFB75 ->Track not present in AccurateRip database. Statistics Read error : 0 Jitter error (maybe fixed) : 0 Retry sector count : 0 Damaged sector count : 0

Track 19 Filename : /Users/bmar29/Music/Kenny Burrell - Tenderly (2011) [FLAC]/19 Be Yourself.flac

Track gain : -0.83 dB Peak : 0.906281 CRC32 hash (test run) : 0B1BE891 CRC32 hash : 0B1BE891 CRC32 hash (skip zero) : 3E042CDE AccurateRip signature : C485163E ->Track not present in AccurateRip database. Statistics Read error : 0 Jitter error (maybe fixed) : 0 Retry sector count : 0 Damaged sector count : 0

Track 20 Filename : /Users/bmar29/Music/Kenny Burrell - Tenderly (2011) [FLAC]/20 Come Rain of Come Shine.flac Pre-gap length : 00:02:00

Track gain : -2.04 dB Peak : 0.966309 CRC32 hash (test run) : 632E673B CRC32 hash : 632E673B CRC32 hash (skip zero) : 169C9862 AccurateRip signature : CD55F179 ->Track not present in AccurateRip database. Statistics Read error : 0 Jitter error (maybe fixed) : 0 Retry sector count : 0 Damaged sector count : 0

Track 21 Filename : /Users/bmar29/Music/Kenny Burrell - Tenderly (2011) [FLAC]/21 Prelude No. 3пјљ Butterflying (Excerpt).flac Pre-gap length : 00:03:00

Track gain : 1.38 dB Peak : 0.731506 CRC32 hash (test run) : 33F611EC CRC32 hash : 33F611EC CRC32 hash (skip zero) : 95D1AF97 AccurateRip signature : 4434DC83 ->Track not present in AccurateRip database. Statistics Read error : 0 Jitter error (maybe fixed) : 0 Retry sector count : 0 Damaged sector count : 0

No errors occurred

End of status report
 
TITLE "Tenderly"PERFORMER "Kenny Burrell"CATALOG 0632375722722REM GENRE "Solo Guitar Concert"REM DATE "2011"REM DISCID 400FA815REM REPLAYGAIN_ALBUM_GAIN -2.76 dBREM REPLAYGAIN_ALBUM_PEAK 0.966309FILE "01 Tenderly.flac" WAVE TRACK 01 AUDIO TITLE "Tenderly" ISRC USHNR1122701 FLAGS DCP REM COMMENT "Live from The Theatre @ Boston Court Pasadena, CA" REM REPLAYGAIN_TRACK_GAIN -4.47 dB REM REPLAYGAIN_TRACK_PEAK 0.966156 INDEX 01 00:00:00 TRACK 02 AUDIO TITLE "Remembering Wes" ISRC USHNR1122702 FLAGS DCP REM COMMENT "Live from The Theatre @ Boston Court Pasadena, CA" REM REPLAYGAIN_TRACK_GAIN -2.62 dB REM REPLAYGAIN_TRACK_PEAK 0.966217 INDEX 00 04:32:41FILE "02 Remembering Wes.flac" WAVE INDEX 01 00:00:00 TRACK 03 AUDIO TITLE "Autumn Leaves" ISRC USHNR1122703 FLAGS DCP REM COMMENT "Live from The Theatre @ Boston Court Pasadena, CA" REM REPLAYGAIN_TRACK_GAIN -7.13 dB REM REPLAYGAIN_TRACK_PEAK 0.966278 INDEX 00 04:39:57FILE "03 Autumn Leaves.flac" WAVE INDEX 01 00:00:00 TRACK 04 AUDIO TITLE "Sproken Introduction" ISRC USHNR1122704 FLAGS DCP REM COMMENT "Live from The Theatre @ Boston Court Pasadena, CA" REM REPLAYGAIN_TRACK_GAIN 3.17 dB REM REPLAYGAIN_TRACK_PEAK 0.423218 INDEX 00 03:47:30FILE "04 Sproken Introduction.flac" WAVE INDEX 01 00:00:00FILE "05 Billie Holiday Tribute Medley.flac" WAVE TRACK 05 AUDIO TITLE "Billie Holiday Tribute Medley" ISRC USHNR1122705 FLAGS DCP REM COMMENT "Live from The Theatre @ Boston Court Pasadena, CA" REM REPLAYGAIN_TRACK_GAIN -1.67 dB REM REPLAYGAIN_TRACK_PEAK 0.966125 INDEX 01 00:00:00 TRACK 06 AUDIO TITLE "A Child is Born" ISRC USHNR1122706 FLAGS DCP REM COMMENT "Live from The Theatre @ Boston Court Pasadena, CA" REM REPLAYGAIN_TRACK_GAIN -1.59 dB REM REPLAYGAIN_TRACK_PEAK 0.966278 INDEX 00 05:25:41FILE "06 A Child is Born.flac" WAVE INDEX 01 00:00:00 TRACK 07 AUDIO TITLE "Spoken Introduction" ISRC USHNR1122707 FLAGS DCP REM COMMENT "Live from The Theatre @ Boston Court Pasadena, CA" REM REPLAYGAIN_TRACK_GAIN 3.06 dB REM REPLAYGAIN_TRACK_PEAK 0.483185 INDEX 00 03:57:38FILE "07 Spoken Introduction.flac" WAVE INDEX 01 00:00:00FILE "08 What a Wonderful World.flac" WAVE TRACK 08 AUDIO TITLE "What a Wonderful World" ISRC USHNR1122708 FLAGS DCP REM COMMENT "Live from The Theatre @ Boston Court Pasadena, CA" REM REPLAYGAIN_TRACK_GAIN 1.83 dB REM REPLAYGAIN_TRACK_PEAK 0.719543 INDEX 01 00:00:00 TRACK 09 AUDIO TITLE "Spoken Introduction" ISRC USHNR1122709 FLAGS DCP REM COMMENT "Live from The Theatre @ Boston Court Pasadena, CA" REM REPLAYGAIN_TRACK_GAIN -0.09 dB REM REPLAYGAIN_TRACK_PEAK 0.966095 INDEX 00 03:00:55FILE "09 Spoken Introduction.flac" WAVE INDEX 01 00:00:00FILE "10 Soulful Brothers.flac" WAVE TRACK 10 AUDIO TITLE "Soulful Brothers" ISRC USHNR1122710 FLAGS DCP REM COMMENT "Live from The Theatre @ Boston Court Pasadena, CA" REM REPLAYGAIN_TRACK_GAIN -3.90 dB REM REPLAYGAIN_TRACK_PEAK 0.966156 INDEX 01 00:00:00 TRACK 11 AUDIO TITLE "Spoken Introduction" ISRC USHNR1122711 FLAGS DCP REM COMMENT "Live from The Theatre @ Boston Court Pasadena, CA" REM REPLAYGAIN_TRACK_GAIN 1.47 dB REM REPLAYGAIN_TRACK_PEAK 0.522034 INDEX 00 04:28:38FILE "11 Spoken Introduction.flac" WAVE INDEX 01 00:00:00FILE "12 Ellingtonia Montage.flac" WAVE TRACK 12 AUDIO TITLE "Ellingtonia Montage" ISRC USHNR1122712 FLAGS DCP REM COMMENT "Live from The Theatre @ Boston Court Pasadena, CA" REM REPLAYGAIN_TRACK_GAIN -0.87 dB REM REPLAYGAIN_TRACK_PEAK 0.931915 INDEX 01 00:00:00 TRACK 13 AUDIO TITLE "Come on Blues" ISRC USHNR1122713 FLAGS DCP REM COMMENT "Live from The Theatre @ Boston Court Pasadena, CA" REM REPLAYGAIN_TRACK_GAIN -3.35 dB REM REPLAYGAIN_TRACK_PEAK 0.966248 INDEX 00 07:04:19FILE "13 Come on Blues.flac" WAVE INDEX 01 00:00:00 TRACK 14 AUDIO TITLE "Spoken Introduction" ISRC USHNR1122714 FLAGS DCP REM COMMENT "Live from The Theatre @ Boston Court Pasadena, CA" REM REPLAYGAIN_TRACK_GAIN 5.88 dB REM REPLAYGAIN_TRACK_PEAK 0.300079 INDEX 00 04:51:42FILE "14 Spoken Introduction.flac" WAVE INDEX 01 00:00:00FILE "15 Recado Bossa Nova.flac" WAVE TRACK 15 AUDIO TITLE "Recado Bossa Nova" ISRC USHNR1122715 FLAGS DCP REM COMMENT "Live from The Theatre @ Boston Court Pasadena, CA" REM REPLAYGAIN_TRACK_GAIN 1.19 dB REM REPLAYGAIN_TRACK_PEAK 0.966217 INDEX 01 00:00:00 TRACK 16 AUDIO TITLE "Couplet Romantic" ISRC USHNR1122716 FLAGS DCP REM COMMENT "Live from The Theatre @ Boston Court Pasadena, CA" REM REPLAYGAIN_TRACK_GAIN 0.38 dB REM REPLAYGAIN_TRACK_PEAK 0.834564 INDEX 00 04:13:22FILE "16 Couplet Romantic.flac" WAVE INDEX 01 00:00:00 TRACK 17 AUDIO TITLE "Spring Can Really Hang You Up the Most" ISRC USHNR1122717 FLAGS DCP REM COMMENT "Live from The Theatre @ Boston Court Pasadena, CA" REM REPLAYGAIN_TRACK_GAIN -1.33 dB REM REPLAYGAIN_TRACK_PEAK 0.816101 INDEX 00 03:38:49FILE "17 Spring Can Really Hang You Up the Most.flac" WAVE INDEX 01 00:00:00 TRACK 18 AUDIO TITLE "Spoken Introduction" ISRC USHNR1122718 FLAGS DCP REM COMMENT "Live from The Theatre @ Boston Court Pasadena, CA" REM REPLAYGAIN_TRACK_GAIN 3.24 dB REM REPLAYGAIN_TRACK_PEAK 0.611664 INDEX 00 04:01:48FILE "18 Spoken Introduction.flac" WAVE INDEX 01 00:00:00FILE "19 Be Yourself.flac" WAVE TRACK 19 AUDIO TITLE "Be Yourself" ISRC USHNR1122719 FLAGS DCP REM COMMENT "Live from The Theatre @ Boston Court Pasadena, CA" REM REPLAYGAIN_TRACK_GAIN -0.83 dB REM REPLAYGAIN_TRACK_PEAK 0.906281 INDEX 01 00:00:00 TRACK 20 AUDIO TITLE "Come Rain of Come Shine" ISRC USHNR1122720 FLAGS DCP REM COMMENT "Live from The Theatre @ Boston Court Pasadena, CA" REM REPLAYGAIN_TRACK_GAIN -2.04 dB REM REPLAYGAIN_TRACK_PEAK 0.966309 INDEX 00 04:30:69FILE "20 Come Rain of Come Shine.flac" WAVE INDEX 01 00:00:00 TRACK 21 AUDIO TITLE "Prelude No. 3: Butterflying (Excerpt)" ISRC USHNR1122721 FLAGS DCP REM COMMENT "Live from The Theatre @ Boston Court Pasadena, CA" REM REPLAYGAIN_TRACK_GAIN 1.38 dB REM REPLAYGAIN_TRACK_PEAK 0.731506 INDEX 00 03:40:56FILE "21 Prelude No. 3пјљ Butterflying (Excerpt).flac" WAVE INDEX 01 00:00:00
Kenny Burrell (guitar).


Трекер:  [ 29-Янв-2012 14:46 ]

  

Скачать .torrent

Размер .torrent файла 12 KB


Размер: 276 MB
Хэш (hash) релиза: 11f04fa333a0e4d5d89a19559d96b2b7633ca7e4

Еще никто не оставлял запись к записи скачать торрент Kenny Burrell - Tenderly: Solo Guitar Concert - 2011, FLAC . Будь первым!

!Обратная связь