Скачать через торрент музыку Pat Martino Quartet - Undeniable: Live at Blues Alley - 2011, FLAC бесплатно без регистрации torrent

Если у вас наблюдаются проблемы со скриншотами, переходом по ссылками, скачиванием торрентов - проблемы в блокировщике рекламы AdBlock. #хорошегоДня!


Статистика раздачи
Размер:  353 MB   |    Зарегистрирован:  5 лет 8 месяцев   |    .torrent скачан:  36 раз   |   
Раздают:  1  
   
Загрузка...
 
Автор Сообщение

Umakiro

avatar Umakiro


Pat Martino Quartet - Undeniable: Live at Blues Alley

Жанр: Straight-Ahead Jazz, Post-Bop
Год издания диска: 2011
Издатель (лейбл): HighNote
Номер по каталогу: HCD 7231
Страна: US Philadelphia, Pennsylvania
Аудиокодек: FLAC (*.flac)
Тип рипа: tracks+.cue
Битрейт аудио: lossless
Продолжительность: 00:58:59
Источник (релизер): shummuhs
Наличие сканов в содержимом раздачи: нет
01. Lean Years [07:37]
02. Inside Out [08:32]
03. Goin' To A Meeting [10:00]
04. Double Play [08:03]
05. Midnight Special [08:45]
06. 'Round Midnight [07:52]
07. Side Effect [08:10]
 
X Lossless Decoder version 20111214 (138.1)

XLD extraction logfile from 2012-01-19 23:58:02 +0000

Pat Martino / Undeniable

Used drive : MATSHITA DVD-R UJ-868 (revision KB19)

Ripper mode : XLD Secure RipperDisable audio cache : OK for the drive with a cache less than 1375KiBMake use of C2 pointers : NORead offset correction : 102Max retry count : 20Gap status : Analyzed, Appended (except HTOA)

TOC of the extracted CD Track | Start | Length | Start sector | End sector --------------------------------------------------------- 1 | 00:00:00 | 07:37:74 | 0 | 34348 2 | 07:37:74 | 08:32:32 | 34349 | 72780 3 | 16:10:31 | 10:00:27 | 72781 | 117807 4 | 26:10:58 | 08:03:47 | 117808 | 154079 5 | 34:14:30 | 08:45:26 | 154080 | 193480 6 | 42:59:56 | 07:52:15 | 193481 | 228895 7 | 50:51:71 | 08:10:74 | 228896 | 265719

AccurateRip Summary Disc not found in AccurateRip DB.

All Tracks Album gain : -7.58 dB Peak : 0.999969 Statistics Read error : 0 Jitter error (maybe fixed) : 0 Retry sector count : 0 Damaged sector count : 0

Track 01 Filename : /Users/bmar29/Music/Pat Martino - Undeniable (2011) [FLAC]/01 Lean Years.flac Pre-gap length : 00:02:00

Track gain : -7.55 dB Peak : 0.999969 CRC32 hash (test run) : FA454CED CRC32 hash : FA454CED CRC32 hash (skip zero) : 7FF8413E AccurateRip signature : 4617B4C8 ->Track not present in AccurateRip database. Statistics Read error : 0 Jitter error (maybe fixed) : 0 Retry sector count : 0 Damaged sector count : 0

Track 02 Filename : /Users/bmar29/Music/Pat Martino - Undeniable (2011) [FLAC]/02 Inside Out.flac

Track gain : -7.86 dB Peak : 0.999969 CRC32 hash (test run) : F11EEA31 CRC32 hash : F11EEA31 CRC32 hash (skip zero) : 1E6F8C2E AccurateRip signature : 1F68695D ->Track not present in AccurateRip database. Statistics Read error : 0 Jitter error (maybe fixed) : 0 Retry sector count : 0 Damaged sector count : 0

Track 03 Filename : /Users/bmar29/Music/Pat Martino - Undeniable (2011) [FLAC]/03 Goin' To A Meeting.flac

Track gain : -7.78 dB Peak : 0.988495 CRC32 hash (test run) : 0CC47E5D CRC32 hash : 0CC47E5D CRC32 hash (skip zero) : ADEAA055 AccurateRip signature : 32C1E21E ->Track not present in AccurateRip database. Statistics Read error : 0 Jitter error (maybe fixed) : 0 Retry sector count : 0 Damaged sector count : 0

Track 04 Filename : /Users/bmar29/Music/Pat Martino - Undeniable (2011) [FLAC]/04 Double Play.flac

Track gain : -8.66 dB Peak : 0.999939 CRC32 hash (test run) : 7862049E CRC32 hash : 7862049E CRC32 hash (skip zero) : 5C7861D3 AccurateRip signature : B24E0374 ->Track not present in AccurateRip database. Statistics Read error : 0 Jitter error (maybe fixed) : 0 Retry sector count : 0 Damaged sector count : 0

Track 05 Filename : /Users/bmar29/Music/Pat Martino - Undeniable (2011) [FLAC]/05 Midnight Special.flac

Track gain : -6.62 dB Peak : 0.988403 CRC32 hash (test run) : 5D5A5E3E CRC32 hash : 5D5A5E3E CRC32 hash (skip zero) : 4B1F6C57 AccurateRip signature : 363CDD96 ->Track not present in AccurateRip database. Statistics Read error : 0 Jitter error (maybe fixed) : 0 Retry sector count : 0 Damaged sector count : 0

Track 06 Filename : /Users/bmar29/Music/Pat Martino - Undeniable (2011) [FLAC]/06 'Round Midnight.flac

Track gain : -5.52 dB Peak : 0.977478 CRC32 hash (test run) : E97B38B2 CRC32 hash : E97B38B2 CRC32 hash (skip zero) : 5451F5F6 AccurateRip signature : 0294D321 ->Track not present in AccurateRip database. Statistics Read error : 0 Jitter error (maybe fixed) : 0 Retry sector count : 0 Damaged sector count : 0

Track 07 Filename : /Users/bmar29/Music/Pat Martino - Undeniable (2011) [FLAC]/07 Side Effect.flac

Track gain : -6.96 dB Peak : 0.999939 CRC32 hash (test run) : 7520348B CRC32 hash : 7520348B CRC32 hash (skip zero) : D6DA8012 AccurateRip signature : C5C69B08 ->Track not present in AccurateRip database. Statistics Read error : 0 Jitter error (maybe fixed) : 0 Retry sector count : 0 Damaged sector count : 0

No errors occurred

End of status report
 
TITLE "Undeniable"PERFORMER "Pat Martino"CATALOG 0632375723125REM GENRE "Jazz"REM DATE "2011"REM DISCID 5D0DD607REM REPLAYGAIN_ALBUM_GAIN -7.58 dBREM REPLAYGAIN_ALBUM_PEAK 0.999969FILE "01 Lean Years.flac" WAVE TRACK 01 AUDIO TITLE "Lean Years" ISRC USHNR1123101 FLAGS DCP REM REPLAYGAIN_TRACK_GAIN -7.55 dB REM REPLAYGAIN_TRACK_PEAK 0.999969 INDEX 01 00:00:00FILE "02 Inside Out.flac" WAVE TRACK 02 AUDIO TITLE "Inside Out" ISRC USHNR1123102 FLAGS DCP REM REPLAYGAIN_TRACK_GAIN -7.86 dB REM REPLAYGAIN_TRACK_PEAK 0.999969 INDEX 01 00:00:00FILE "03 Goin' To A Meeting.flac" WAVE TRACK 03 AUDIO TITLE "Goin' To A Meeting" ISRC USHNR1123103 FLAGS DCP REM REPLAYGAIN_TRACK_GAIN -7.78 dB REM REPLAYGAIN_TRACK_PEAK 0.988495 INDEX 01 00:00:00FILE "04 Double Play.flac" WAVE TRACK 04 AUDIO TITLE "Double Play" ISRC USHNR1123104 FLAGS DCP REM REPLAYGAIN_TRACK_GAIN -8.66 dB REM REPLAYGAIN_TRACK_PEAK 0.999939 INDEX 01 00:00:00FILE "05 Midnight Special.flac" WAVE TRACK 05 AUDIO TITLE "Midnight Special" ISRC USHNR1123105 FLAGS DCP REM REPLAYGAIN_TRACK_GAIN -6.62 dB REM REPLAYGAIN_TRACK_PEAK 0.988403 INDEX 01 00:00:00FILE "06 'Round Midnight.flac" WAVE TRACK 06 AUDIO TITLE "'Round Midnight" ISRC USHNR1123106 FLAGS DCP REM REPLAYGAIN_TRACK_GAIN -5.52 dB REM REPLAYGAIN_TRACK_PEAK 0.977478 INDEX 01 00:00:00FILE "07 Side Effect.flac" WAVE TRACK 07 AUDIO TITLE "Side Effect" ISRC USHNR1123107 FLAGS DCP REM REPLAYGAIN_TRACK_GAIN -6.96 dB REM REPLAYGAIN_TRACK_PEAK 0.999939 INDEX 01 00:00:00
Pat Martino (guitar);
Eric Alexander (tenor saxophone);
Tony Monaco (organ);
Jeff "Tain" Watts (drums).


Трекер:  [ 29-Янв-2012 14:45 ]

  

Скачать .torrent

Размер .torrent файла 14 KB


Размер: 353 MB
Хэш (hash) релиза: 5703b0bc373e6761a7c887c62cb343cf0d760fb3

Еще никто не оставлял запись к записи скачать торрент Pat Martino Quartet - Undeniable: Live at Blues Alley - 2011, FLAC . Будь первым!

!Обратная связь