Скачать через торрент музыку Plas Johnson Red Holloway - Keep That Groove Going! - 2001, FLAC бесплатно без регистрации torrent

Если у вас наблюдаются проблемы со скриншотами, переходом по ссылками, скачиванием торрентов - проблемы в блокировщике рекламы AdBlock. #хорошегоДня!


Статистика раздачи
Размер:  348 MB   |    Зарегистрирован:  5 лет 8 месяцев   |    .torrent скачан:  42 раза   |   
Раздают:  1  
   
Загрузка...
 
Автор Сообщение

Umakiro

avatar Umakiro


Plas Johnson / Red Holloway - Keep That Groove Going!

Жанр: Soul Jazz, Mainstream Jazz, Jump Blues
Страна-производитель диска: USA
Год издания диска: 2001
Издатель (лейбл): Milestone
Номер по каталогу: CD-9319-2
Аудиокодек: FLAC (*.flac)
Тип рипа: tracks+.cue
Битрейт аудио: lossless
Продолжительность: 00:55:22
Источник (релизер): сеть
Наличие сканов в содержимом раздачи: да
01. Keep That Groove Going [06:07]
02. Stuffy [04:13]
03. Serenade In Blue [06:49]
04. Go Red Go [04:13]
05. Bretheren [07:24]
06. Pass The Gravy [08:42]
07. Jammin' For Mr Lee [06:35]
08. Cry Me A River [05:04]
09. Dream A Little Dream Of Me [06:15]

Recorded at Van Gelder Studios, Englwood Cliffs, New Jersey on April 24-25, 2001
 
Exact Audio Copy V1.0 beta 1 from 15. November 2010

EAC extraction logfile from 30. August 2011, 20:24

Plas Johnson & Red Holloway / Keep That Groove Going

Used drive : TSSTcorpCDDVDW SH-S203N Adapter: 0 ID: 2

Read mode : SecureUtilize accurate stream : YesDefeat audio cache : YesMake use of C2 pointers : No

Read offset correction : 6Overread into Lead-In and Lead-Out : NoFill up missing offset samples with silence : YesDelete leading and trailing silent blocks : NoNull samples used in CRC calculations : YesUsed interface : Installed external ASPI interfaceGap handling : Appended to previous track

Used output format : User Defined EncoderSelected bitrate : 768 kBit/sQuality : HighAdd ID3 tag : NoCommand line compressor : C:\Program Files\Exact Audio Copy-NEW\Flac\flac.exeAdditional command line options : -8 -V -T "ARTIST=%a" -T "TITLE=%t" -T "ALBUM=%g" -T "DATE=%y" -T "TRACKNUMBER=%n" -T "TOTALTRACKS=%x" -T "GENRE=%m" -T "ALBUMARTIST=%v" -T "ALBUM ARTIST=%v" -T "COMMENT=EAC V1.01b1, Secure Mode, Test & Copy, AccurateRip, FL

TOC of the extracted CD

Track | Start | Length | Start sector | End sector --------------------------------------------------------- 1 | 0:00.00 | 6:07.45 | 0 | 27569 2 | 6:07.45 | 4:13.56 | 27570 | 46600 3 | 10:21.26 | 6:49.38 | 46601 | 77313 4 | 17:10.64 | 4:13.38 | 77314 | 96326 5 | 21:24.27 | 7:24.40 | 96327 | 129666 6 | 28:48.67 | 8:42.37 | 129667 | 168853 7 | 37:31.29 | 6:35.50 | 168854 | 198528 8 | 44:07.04 | 5:04.10 | 198529 | 221338 9 | 49:11.14 | 6:15.19 | 221339 | 249482

Track 1

Filename J:\New Rips\Plas Johnson & Red Holloway - Keep That Groove Going (2001) [FLAC]\01 - Keep That Groove Going.wav

Pre-gap length 0:00:02.00

Peak level 97.9 % Extraction speed 4.6 X Track quality 99.9 % Test CRC 95960D53 Copy CRC 95960D53 Accurately ripped (confidence 3) [9FA967F8] Copy OK

Track 2

Filename J:\New Rips\Plas Johnson & Red Holloway - Keep That Groove Going (2001) [FLAC]\02 - Stuffy.wav

Pre-gap length 0:00:02.30

Peak level 97.9 % Extraction speed 5.7 X Track quality 100.0 % Test CRC 4834AE9E Copy CRC 4834AE9E Accurately ripped (confidence 3) [DBC89831] Copy OK

Track 3

Filename J:\New Rips\Plas Johnson & Red Holloway - Keep That Groove Going (2001) [FLAC]\03 - Serenade In Blue.wav

Pre-gap length 0:00:02.03

Peak level 97.9 % Extraction speed 6.6 X Track quality 100.0 % Test CRC 62CA9BEA Copy CRC 62CA9BEA Accurately ripped (confidence 3) [EA52AB24] Copy OK

Track 4

Filename J:\New Rips\Plas Johnson & Red Holloway - Keep That Groove Going (2001) [FLAC]\04 - Go Red Go.wav

Pre-gap length 0:00:02.17

Peak level 97.9 % Extraction speed 6.8 X Track quality 100.0 % Test CRC 2E68142E Copy CRC 2E68142E Accurately ripped (confidence 3) [8E693053] Copy OK

Track 5

Filename J:\New Rips\Plas Johnson & Red Holloway - Keep That Groove Going (2001) [FLAC]\05 - Bretheren.wav

Pre-gap length 0:00:01.46

Peak level 97.9 % Extraction speed 7.7 X Track quality 100.0 % Test CRC 7ED25AFC Copy CRC 7ED25AFC Accurately ripped (confidence 3) [A127B771] Copy OK

Track 6

Filename J:\New Rips\Plas Johnson & Red Holloway - Keep That Groove Going (2001) [FLAC]\06 - Pass The Gravy.wav

Pre-gap length 0:00:02.03

Peak level 97.9 % Extraction speed 8.5 X Track quality 100.0 % Test CRC BAD07EFB Copy CRC BAD07EFB Accurately ripped (confidence 3) [065DD28C] Copy OK

Track 7

Filename J:\New Rips\Plas Johnson & Red Holloway - Keep That Groove Going (2001) [FLAC]\07 - Jammin' For Mr Lee.wav

Pre-gap length 0:00:01.62

Peak level 97.9 % Extraction speed 4.7 X Track quality 100.0 % Test CRC B70DB0CB Copy CRC B70DB0CB Accurately ripped (confidence 3) [62DC626F] Copy OK

Track 8

Filename J:\New Rips\Plas Johnson & Red Holloway - Keep That Groove Going (2001) [FLAC]\08 - Cry Me A River.wav

Pre-gap length 0:00:01.60

Peak level 97.9 % Extraction speed 8.9 X Track quality 100.0 % Test CRC DC2CAACA Copy CRC DC2CAACA Accurately ripped (confidence 3) [81016CE1] Copy OK

Track 9

Filename J:\New Rips\Plas Johnson & Red Holloway - Keep That Groove Going (2001) [FLAC]\09 - Dream A Little Dream Of Me.wav

Pre-gap length 0:00:02.17

Peak level 97.9 % Extraction speed 8.0 X Track quality 99.9 % Test CRC 0120214F Copy CRC 0120214F Accurately ripped (confidence 3) [E56F9F25] Copy OK

All tracks accurately ripped

No errors occurred

End of status report

==== Log checksum 73DD72CC186AAB6C5FB4C58A457EB60AE451F3458CFE0A4C3270589C13E6528E ====
 
REM GENRE "Jazz (Soul)"REM DATE 2001REM DISCID 750CFE09REM COMMENT "ExactAudioCopy v1.0b1"PERFORMER "Plas Johnson & Red Holloway"TITLE "Keep That Groove Going"FILE "01 - Keep That Groove Going.flac" WAVE TRACK 01 AUDIO TITLE "Keep That Groove Going" PERFORMER "Plas Johnson & Red Holloway" INDEX 01 00:00:00 TRACK 02 AUDIO TITLE "Stuffy" PERFORMER "Plas Johnson & Red Holloway" INDEX 00 06:05:15FILE "02 - Stuffy.flac" WAVE INDEX 01 00:00:00 TRACK 03 AUDIO TITLE "Serenade In Blue" PERFORMER "Plas Johnson & Red Holloway" INDEX 00 04:11:53FILE "03 - Serenade In Blue.flac" WAVE INDEX 01 00:00:00 TRACK 04 AUDIO TITLE "Go Red Go" PERFORMER "Plas Johnson & Red Holloway" INDEX 00 06:47:21FILE "04 - Go Red Go.flac" WAVE INDEX 01 00:00:00 TRACK 05 AUDIO TITLE "Bretheren" PERFORMER "Plas Johnson & Red Holloway" INDEX 00 04:11:67FILE "05 - Bretheren.flac" WAVE INDEX 01 00:00:00 TRACK 06 AUDIO TITLE "Pass The Gravy" PERFORMER "Plas Johnson & Red Holloway" INDEX 00 07:22:37FILE "06 - Pass The Gravy.flac" WAVE INDEX 01 00:00:00 TRACK 07 AUDIO TITLE "Jammin' For Mr Lee" PERFORMER "Plas Johnson & Red Holloway" INDEX 00 08:40:50FILE "07 - Jammin' For Mr Lee.flac" WAVE INDEX 01 00:00:00 TRACK 08 AUDIO TITLE "Cry Me A River" PERFORMER "Plas Johnson & Red Holloway" INDEX 00 06:33:65FILE "08 - Cry Me A River.flac" WAVE INDEX 01 00:00:00 TRACK 09 AUDIO TITLE "Dream A Little Dream Of Me" PERFORMER "Plas Johnson & Red Holloway" INDEX 00 05:01:68FILE "09 - Dream A Little Dream Of Me.flac" WAVE INDEX 01 00:00:00
Red Holloway (tenor saxophone)
Melvin Sparks (guitar)
Plas Johnson (tenor saxophone)
Gene Ludwig (organ)
Kenny Washington (drums)


Трекер:  [ 29-Янв-2012 14:45 ]

  

Скачать .torrent

Размер .torrent файла 15 KB


Размер: 348 MB
Хэш (hash) релиза: 590a9c283372da3235662446dcc1059a3e49fa54

Еще никто не оставлял запись к записи скачать торрент Plas Johnson Red Holloway - Keep That Groove Going! - 2001, FLAC . Будь первым!

!Обратная связь