Скачать через торрент музыку Johnny Griffin Quartet - Blues For Harvey - 1986, WavPack бесплатно без регистрации torrent

Если у вас наблюдаются проблемы со скриншотами, переходом по ссылками, скачиванием торрентов - проблемы в блокировщике рекламы AdBlock. #хорошегоДня!


Статистика раздачи
Размер:  325 MB   |    Зарегистрирован:  5 лет 8 месяцев   |    .torrent скачан:  26 раз   |   
Раздают:  1  
   
Загрузка...
 
Автор Сообщение

Umakiro

avatar Umakiro


Johnny Griffin Quartet - Blues For Harvey

Жанр: Bop, Hard Bop
Страна-производитель диска: USA
Год издания диска: 1986
Издатель (лейбл): Steeplechase
Номер по каталогу: SCCD-31004
Страна: USA Chicago, IL
Аудиокодек: WavPack (*.wv)
Тип рипа: image+.cue
Битрейт аудио: lossless
Продолжительность: 00:57:11
Источник (релизер): ffsf
Наличие сканов в содержимом раздачи: да
01. That Party Upstairs [14:41]
02. Alone Again [08:43]
03. Sound Track Blues [06:15]
04. Theme [00:25]
05. Soft and Furry [11:36]
06. Blues For Harvey [12:54]
07. Rhythm-A-Ning - Theme [02:37]

Recorded: live at Jazzhus Montmartre, Copenhagen, Denmark, July 4 & 5, 1973
 
Exact Audio Copy V1.0 beta 3 from 29. August 2011

EAC extraction logfile from 20. January 2012, 17:13

Johnny Griffin / Blues For Harvey

Used drive : HL-DT-STDVDRAM GT20N Adapter: 0 ID: 0

Read mode : SecureUtilize accurate stream : YesDefeat audio cache : YesMake use of C2 pointers : No

Read offset correction : 667Overread into Lead-In and Lead-Out : NoFill up missing offset samples with silence : YesDelete leading and trailing silent blocks : NoNull samples used in CRC calculations : YesUsed interface : Installed external ASPI interface

Used output format : Internal WAV RoutinesSample format : 44.100 Hz; 16 Bit; Stereo

TOC of the extracted CD

Track | Start | Length | Start sector | End sector --------------------------------------------------------- 1 | 0:00.33 | 14:42.60 | 33 | 66242 2 | 14:43.18 | 8:42.37 | 66243 | 105429 3 | 23:25.55 | 6:13.50 | 105430 | 133454 4 | 29:39.30 | 0:26.65 | 133455 | 135469 5 | 30:06.20 | 11:34.48 | 135470 | 187567 6 | 41:40.68 | 12:53.40 | 187568 | 245582 7 | 54:34.33 | 2:36.67 | 245583 | 257349

Range status and errors

Selected range

Filename D:\EAC\Johnny Griffin - Blues For Harvey\Johnny Griffin - Blues For Harvey.wav

Peak level 100.0 % Extraction speed 4.2 X Range quality 100.0 % Test CRC 6A40E17A Copy CRC 6A40E17A Copy OK

No errors occurred

AccurateRip summary

Track 1 accurately ripped (confidence 1) [A8AED0EC] (AR v2)Track 2 accurately ripped (confidence 1) [50D57F78] (AR v2)Track 3 accurately ripped (confidence 1) [98BD7783] (AR v2)Track 4 accurately ripped (confidence 1) [6C3309E5] (AR v2)Track 5 accurately ripped (confidence 1) [8DE5A11C] (AR v2)Track 6 not present in databaseTrack 7 accurately ripped (confidence 1) [1F5DD2ED] (AR v2)

6 track(s) accurately ripped 1 track(s) not present in the AccurateRip database

Some tracks could not be verified as accurate

End of status report

==== Log checksum 1410495223388C11698062F469D695CBE5130EF7D29270CF6935B0CA3C146DDC ====
 
REM GENRE JazzREM DATE 1973REM DISCID 600D6707REM COMMENT "ExactAudioCopy v1.0b3"CATALOG 0000000000000PERFORMER "Johnny Griffin"TITLE "Blues For Harvey"FILE "Johnny Griffin - Blues For Harvey.wav" WAVE TRACK 01 AUDIO TITLE "That Party Upstairs" PERFORMER "Johnny Griffin" INDEX 00 00:00:00 INDEX 01 00:00:33 TRACK 02 AUDIO TITLE "Alone Again" PERFORMER "Johnny Griffin" INDEX 00 14:41:65 INDEX 01 14:43:18 TRACK 03 AUDIO TITLE "Sound Track Blues" PERFORMER "Johnny Griffin" INDEX 00 23:24:60 INDEX 01 23:25:55 TRACK 04 AUDIO TITLE "Theme" PERFORMER "Johnny Griffin" INDEX 00 29:39:28 INDEX 01 29:39:30 TRACK 05 AUDIO TITLE "Soft and Furry" PERFORMER "Johnny Griffin" INDEX 00 30:04:73 INDEX 01 30:06:20 TRACK 06 AUDIO TITLE "Blues For Harvey" PERFORMER "Johnny Griffin" INDEX 00 41:40:25 INDEX 01 41:40:68 TRACK 07 AUDIO TITLE "Rhythm-A-Ning - Theme" PERFORMER "Johnny Griffin" INDEX 00 54:34:20 INDEX 01 54:34:33
Kenny Drew (piano)
Johnny Griffin (tenor sax)
Ed Thigpen (drums)
Mads Vinding (bass)


Трекер:  [ 29-Янв-2012 14:45 ]

  

Скачать .torrent

Размер .torrent файла 13 KB


Размер: 325 MB
Хэш (hash) релиза: 62d0d367011dd64e84a67b98f91e0042c325d0e7

Еще никто не оставлял запись к записи скачать торрент Johnny Griffin Quartet - Blues For Harvey - 1986, WavPack . Будь первым!

!Обратная связь