Скачать через торрент музыку Horace Tapscott - Lighthouse 79, Vol. 1 - 2009, APE бесплатно без регистрации torrent

Если у вас наблюдаются проблемы со скриншотами, переходом по ссылками, скачиванием торрентов - проблемы в блокировщике рекламы AdBlock. #хорошегоДня!


Статистика раздачи
Размер:  411 MB   |    Зарегистрирован:  5 лет 8 месяцев   |    .torrent скачан:  24 раза   |   
Раздают:  1  
   
Загрузка...
 
Автор Сообщение

Umakiro

avatar Umakiro


Horace Tapscott - Lighthouse 79, Vol. 1

Жанр: Post-bop, Free-bop
Страна-производитель диска: USA
Год издания диска: 2009
Издатель (лейбл): Nimbus West
Номер по каталогу: NS 4035 C
Страна: US Houston, TX
Аудиокодек: APE (*.ape)
Тип рипа: image+.cue
Битрейт аудио: lossless
Продолжительность: 01:12:00
Источник (релизер): dreadbull
Наличие сканов в содержимом раздачи: да
01. Acirfa [19:58]
02. Dem, Folks [17:36]
03. I Remember Clifford [09:20]
04. Leland's Song [18:44]
05. Acirfa [06:22]

Recorded: Oct. 10, 1979, at Ruby Onderwyzer's Lighthouse, Hermosa Beach, CA.
 
Exact Audio Copy V1.0 beta 2 from 29. April 2011

EAC extraction logfile from 10. December 2011, 15:27

Horace Tapscott / Lighthouse 79 Vol.01

Used drive : ASUS DRW-22B2L Adapter: 0 ID: 1

Read mode : SecureUtilize accurate stream : YesDefeat audio cache : YesMake use of C2 pointers : No

Read offset correction : 6Overread into Lead-In and Lead-Out : NoFill up missing offset samples with silence : YesDelete leading and trailing silent blocks : NoNull samples used in CRC calculations : YesUsed interface : Native Win32 interface for Win NT & 2000

Used output format : Internal WAV RoutinesSample format : 44.100 Hz; 16 Bit; Stereo

TOC of the extracted CD

Track | Start | Length | Start sector | End sector --------------------------------------------------------- 1 | 0:00.00 | 20:00.38 | 0 | 90037 2 | 20:00.38 | 17:35.71 | 90038 | 169233 3 | 37:36.34 | 9:20.04 | 169234 | 211237 4 | 46:56.38 | 18:43.50 | 211238 | 295512 5 | 65:40.13 | 6:19.72 | 295513 | 324009

Range status and errors

Selected range

Filename D:\Donkey Files\Horace Tapscott - Lighthouse 79 Vol. 1 (Nimbus) [eac-ape-scans] byDrBull\Horace Tapscott - Lighthouse 79 Vol.01.wav

Peak level 98.8 % Extraction speed 3.6 X Range quality 100.0 % Test CRC 413A5827 Copy CRC 413A5827 Copy OK

No errors occurred

AccurateRip summary

Track 1 not present in databaseTrack 2 not present in databaseTrack 3 not present in databaseTrack 4 not present in databaseTrack 5 not present in database

None of the tracks are present in the AccurateRip database

End of status report

==== Log checksum 8DDAC6C87447D073466055BE91A3C3229F149242BEAE2F089BFB992389D3DAA0 ====
 
REM GENRE JazzREM DATE 1979REM DISCID 3D10E005REM COMMENT "ExactAudioCopy v1.0b2"PERFORMER "Horace Tapscott"TITLE "Lighthouse 79 Vol.01"FILE "Horace Tapscott - Lighthouse 79 Vol.01.wav" WAVE TRACK 01 AUDIO TITLE "Acirfa" PERFORMER "Horace Tapscott" INDEX 01 00:00:00 TRACK 02 AUDIO TITLE "Dem, Folks" PERFORMER "Horace Tapscott" INDEX 00 19:58:38 INDEX 01 20:00:38 TRACK 03 AUDIO TITLE "I Remember Clifford" PERFORMER "Horace Tapscott" INDEX 00 37:34:34 INDEX 01 37:36:34 TRACK 04 AUDIO TITLE "Leland's Song" PERFORMER "Horace Tapscott" INDEX 00 46:54:38 INDEX 01 46:56:38 TRACK 05 AUDIO TITLE "Acirfa" PERFORMER "Horace Tapscott" INDEX 00 65:38:13 INDEX 01 65:40:13
Horace Tapscott (piano)
Roberto Miranda (bass)
David Bryant (bass)
George Goldsmith (drums)
Gary Bias (alto saxophone)
Reggie Bullen (trumpet)


Трекер:  [ 29-Янв-2012 14:44 ]

  

Скачать .torrent

Размер .torrent файла 17 KB


Размер: 411 MB
Хэш (hash) релиза: 07fff0a8f67a554b4cddf69a18f7c3ca1432f3a8

Еще никто не оставлял запись к записи скачать торрент Horace Tapscott - Lighthouse 79, Vol. 1 - 2009, APE . Будь первым!

!Обратная связь