Скачать через торрент музыку Horace Tapscott - Lighthouse 79, Vol.2 - 2009, APE бесплатно без регистрации torrent

Если у вас наблюдаются проблемы со скриншотами, переходом по ссылками, скачиванием торрентов - проблемы в блокировщике рекламы AdBlock. #хорошегоДня!


Статистика раздачи
Размер:  303 MB   |    Зарегистрирован:  5 лет 8 месяцев   |    .torrent скачан:  23 раза   |   
Раздают:  1  
   
Загрузка...
 
Автор Сообщение

Umakiro

avatar Umakiro


Horace Tapscott - Lighthouse 79, Vol.2

Жанр: Post-Bop, Free-Bop
Страна-производитель диска: USA
Год издания диска: 2009
Издатель (лейбл): Nimbus West
Номер по каталогу: NS 4146 C
Страна: USA Houston, TX
Аудиокодек: APE (*.ape)
Тип рипа: image+.cue
Битрейт аудио: lossless
Продолжительность: 01:04:45
Источник (релизер): dreadbull
Наличие сканов в содержимом раздачи: да
01. Acirfa [11:33]
02. Niger's Theme [13:54]
03. Stella by Starlight [21:49]
04. Lush Life [06:15]
05. Inspiration of Silence [11:14]

Recorded October 10, 1979 at Ruby Onderwyzer's Lighthouse, Hermosa Beach, California.
 
Exact Audio Copy V1.0 beta 2 from 29. April 2011

EAC extraction logfile from 10. December 2011, 14:42

Horace Tapscott / Lighthouse 79 Vol. 2

Used drive : ASUS DRW-22B2L Adapter: 0 ID: 1

Read mode : SecureUtilize accurate stream : YesDefeat audio cache : YesMake use of C2 pointers : No

Read offset correction : 6Overread into Lead-In and Lead-Out : NoFill up missing offset samples with silence : YesDelete leading and trailing silent blocks : NoNull samples used in CRC calculations : YesUsed interface : Native Win32 interface for Win NT & 2000

Used output format : Internal WAV RoutinesSample format : 44.100 Hz; 16 Bit; Stereo

TOC of the extracted CD

Track | Start | Length | Start sector | End sector --------------------------------------------------------- 1 | 0:00.00 | 11:35.71 | 0 | 52195 2 | 11:35.71 | 13:53.25 | 52196 | 114695 3 | 25:29.21 | 21:48.63 | 114696 | 212858 4 | 47:18.09 | 6:15.52 | 212859 | 241035 5 | 53:33.61 | 11:11.15 | 241036 | 291375

Range status and errors

Selected range

Filename D:\Donkey Files\Horace Tapscott - Lighthouse 79 Vol. 2 (Nimbus) [eac-ape-scans] byDrBull\Horace Tapscott - Lighthouse 79 Vol. 2.wav

Peak level 100.0 % Extraction speed 3.8 X Range quality 100.0 % Test CRC 78AB7909 Copy CRC 78AB7909 Copy OK

No errors occurred

AccurateRip summary

Track 1 not present in databaseTrack 2 not present in databaseTrack 3 not present in databaseTrack 4 not present in databaseTrack 5 not present in database

None of the tracks are present in the AccurateRip database

End of status report

==== Log checksum AF69F629D510C887974AEE177B2D6E2369C7EA3CFF9387E08BBD0B9A329BE119 ====
 
REM GENRE JazzREM DATE 1979REM DISCID 3B0F2D05REM COMMENT "ExactAudioCopy v1.0b2"PERFORMER "Horace Tapscott"TITLE "Lighthouse 79 Vol. 2"FILE "Horace Tapscott - Lighthouse 79 Vol. 2.wav" WAVE TRACK 01 AUDIO TITLE "Acirfa" PERFORMER "Horace Tapscott" INDEX 01 00:00:00 TRACK 02 AUDIO TITLE "Niger's Theme" PERFORMER "Horace Tapscott" INDEX 00 11:33:71 INDEX 01 11:35:71 TRACK 03 AUDIO TITLE "Stella by Starlight" PERFORMER "Horace Tapscott" INDEX 00 25:27:21 INDEX 01 25:29:21 TRACK 04 AUDIO TITLE "Lush Life" PERFORMER "Horace Tapscott" INDEX 00 47:16:09 INDEX 01 47:18:09 TRACK 05 AUDIO TITLE "Inspiration of Silence" PERFORMER "Horace Tapscott" INDEX 00 53:31:61 INDEX 01 53:33:61
Horace Tapscott (piano)
Roberto Miranda (bass)
David Bryant (bass)
George Goldsmith (drums)
Gary Bias (alto saxophone)
Reggie Bullen (trumpet)


Трекер:  [ 29-Янв-2012 14:44 ]

  

Скачать .torrent

Размер .torrent файла 12 KB


Размер: 303 MB
Хэш (hash) релиза: 728484f003ff647ee6536f5674cd2b59d034d3b3

Еще никто не оставлял запись к записи скачать торрент Horace Tapscott - Lighthouse 79, Vol.2 - 2009, APE . Будь первым!

!Обратная связь