Скачать через торрент музыку Johnny Griffin Quartet - Live In Tokyo - 1991, WavPack бесплатно без регистрации torrent

Если у вас наблюдаются проблемы со скриншотами, переходом по ссылками, скачиванием торрентов - проблемы в блокировщике рекламы AdBlock. #хорошегоДня!


Статистика раздачи
Размер:  331 MB   |    Зарегистрирован:  5 лет 8 месяцев   |    .torrent скачан:  23 раза   |   
Раздают:  1  
   
Загрузка...
 
Автор Сообщение

Umakiro

avatar Umakiro


Johnny Griffin Quartet - Live In Tokyo

Жанр: Bop, Hard Bop
Страна-производитель диска: USA
Год издания диска: 1991
Издатель (лейбл): West Wind
Номер по каталогу: WW 2068
Страна: USA Chicago, IL
Аудиокодек: WavPack (*.wv)
Тип рипа: image+.cue
Битрейт аудио: lossless
Продолжительность: 00:56:37
Источник (релизер): ffsf
Наличие сканов в содержимом раздачи: да
01. All The Things You Are [18:53]
02. When We Were One [17:09]
03. Wee [03:47]
04. The Man I Love [16:48]
 
Exact Audio Copy V1.0 beta 3 from 29. August 2011

EAC extraction logfile from 20. January 2012, 18:20

Johnny Griffin / Live In Tokyo

Used drive : HL-DT-STDVDRAM GT20N Adapter: 0 ID: 0

Read mode : SecureUtilize accurate stream : YesDefeat audio cache : YesMake use of C2 pointers : No

Read offset correction : 667Overread into Lead-In and Lead-Out : NoFill up missing offset samples with silence : YesDelete leading and trailing silent blocks : NoNull samples used in CRC calculations : YesUsed interface : Installed external ASPI interface

Used output format : Internal WAV RoutinesSample format : 44.100 Hz; 16 Bit; Stereo

TOC of the extracted CD

Track | Start | Length | Start sector | End sector --------------------------------------------------------- 1 | 0:00.00 | 18:53.37 | 0 | 85011 2 | 18:53.37 | 17:08.45 | 85012 | 162156 3 | 36:02.07 | 3:47.18 | 162157 | 179199 4 | 39:49.25 | 16:47.50 | 179200 | 254774

Range status and errors

Selected range

Filename D:\EAC\Johnny Griffin - Live In Tokyo\Johnny Griffin - Live In Tokyo.wav

Peak level 71.3 % Extraction speed 4.2 X Range quality 100.0 % Test CRC 209E81FF Copy CRC 209E81FF Copy OK

No errors occurred

AccurateRip summary

Track 1 not present in databaseTrack 2 not present in databaseTrack 3 not present in databaseTrack 4 not present in database

None of the tracks are present in the AccurateRip database

End of status report

==== Log checksum B4889220D52271E440A9CC25C8DC1DD666390C8AA5ACD7B37D4024025E461B6B ====
 
REM GENRE JazzREM DATE 1976REM DISCID 280D4504REM COMMENT "ExactAudioCopy v1.0b3"CATALOG 0000000000000PERFORMER "Johnny Griffin"TITLE "Live In Tokyo"FILE "Johnny Griffin - Live In Tokyo.wav" WAVE TRACK 01 AUDIO TITLE "All The Things You Are" PERFORMER "Johnny Griffin" INDEX 01 00:00:00 TRACK 02 AUDIO TITLE "When We Were One" PERFORMER "Johnny Griffin" INDEX 01 18:53:37 TRACK 03 AUDIO TITLE "Wee" PERFORMER "Johnny Griffin" INDEX 01 36:02:07 TRACK 04 AUDIO TITLE "The Man I Love" PERFORMER "Johnny Griffin" INDEX 01 39:49:25
Johnny Griffin Sax (Tenor)
Horace Parlan (Piano)
Art Taylor (Drums)
Mads Vinding (Bass)


Трекер:  [ 29-Янв-2012 14:43 ]

  

Скачать .torrent

Размер .torrent файла 13 KB


Размер: 331 MB
Хэш (hash) релиза: 6b3a976552de4d1b93ca8477203ce981f6780cce

Еще никто не оставлял запись к записи скачать торрент Johnny Griffin Quartet - Live In Tokyo - 1991, WavPack . Будь первым!

!Обратная связь