Скачать через торрент музыку Johnny Griffin Quartet - Night Lady - 2009, WavPack бесплатно без регистрации torrent

Если у вас наблюдаются проблемы со скриншотами, переходом по ссылками, скачиванием торрентов - проблемы в блокировщике рекламы AdBlock. #хорошегоДня!


Статистика раздачи
Размер:  277 MB   |    Зарегистрирован:  5 лет 8 месяцев   |    .torrent скачан:  33 раза   |   
Раздают:  1  
   
Загрузка...
 
Автор Сообщение

Umakiro

avatar Umakiro


Johnny Griffin Quartet - Night Lady

Жанр: Bop, Hard Bop
Страна-производитель диска: USA
Год издания диска: 2009
Издатель (лейбл): Universal Music
Номер по каталогу: 06025 1794191
Страна: USA Chicago, IL
Аудиокодек: WavPack (*.wv)
Тип рипа: image+.cue
Битрейт аудио: lossless
Продолжительность: 00:42:11
Источник (релизер): ffsf
Наличие сканов в содержимом раздачи: да
01. Scrabble [07:16]
02. Summertime [05:53]
03. Old Stuff [08:06]
04. Night Lady [09:20]
05. Little Man You've Had A Busy Day [05:21]
06. All The Things You Are [06:15]

Recorded in Cologne 13.02.1964.
 
Exact Audio Copy V1.0 beta 3 from 29. August 2011

EAC extraction logfile from 20. January 2012, 16:13

Johnny Griffin / Night Lady

Used drive : HL-DT-STDVDRAM GT20N Adapter: 0 ID: 0

Read mode : SecureUtilize accurate stream : YesDefeat audio cache : YesMake use of C2 pointers : No

Read offset correction : 667Overread into Lead-In and Lead-Out : NoFill up missing offset samples with silence : YesDelete leading and trailing silent blocks : NoNull samples used in CRC calculations : YesUsed interface : Installed external ASPI interface

Used output format : Internal WAV RoutinesSample format : 44.100 Hz; 16 Bit; Stereo

TOC of the extracted CD

Track | Start | Length | Start sector | End sector --------------------------------------------------------- 1 | 0:00.00 | 7:18.00 | 0 | 32849 2 | 7:18.00 | 5:53.00 | 32850 | 59324 3 | 13:11.00 | 8:05.00 | 59325 | 95699 4 | 21:16.00 | 9:23.00 | 95700 | 137924 5 | 30:39.00 | 5:20.00 | 137925 | 161924 6 | 35:59.00 | 6:12.00 | 161925 | 189824

Range status and errors

Selected range

Filename D:\EAC\Johnny Griffin - Night Lady\Johnny Griffin - Night Lady.wav

Peak level 98.8 % Extraction speed 3.8 X Range quality 100.0 % Test CRC AD91E310 Copy CRC AD91E310 Copy OK

No errors occurred

AccurateRip summary

Track 1 accurately ripped (confidence 3) [67E6E4ED] (AR v1)Track 2 accurately ripped (confidence 3) [FD7B22BC] (AR v1)Track 3 accurately ripped (confidence 3) [3B3AA884] (AR v1)Track 4 accurately ripped (confidence 3) [FFDA34D6] (AR v1)Track 5 accurately ripped (confidence 3) [08C6B7DE] (AR v1)Track 6 accurately ripped (confidence 3) [FE0EFE0C] (AR v1)

All tracks accurately ripped

End of status report

==== Log checksum 98ED172081AEA65C08C4B6C3FED0428E179F9E1ACF7D314750DDCC268FA7E379 ====
 
REM GENRE JazzREM DATE 1964REM DISCID 4709E306REM COMMENT "ExactAudioCopy v1.0b3"CATALOG 0602517941915PERFORMER "Johnny Griffin"TITLE "Night Lady"FILE "Johnny Griffin - Night Lady.wav" WAVE TRACK 01 AUDIO TITLE "Scrabble" PERFORMER "Johnny Griffin" ISRC DEUM70808266 INDEX 01 00:00:00 TRACK 02 AUDIO TITLE "Summertime" PERFORMER "Johnny Griffin" ISRC DEUM70808267 INDEX 00 07:16:01 INDEX 01 07:18:00 TRACK 03 AUDIO TITLE "Old Stuff" PERFORMER "Johnny Griffin" ISRC DEUM70808268 INDEX 00 13:09:01 INDEX 01 13:11:00 TRACK 04 AUDIO TITLE "Night Lady" PERFORMER "Johnny Griffin" ISRC DEUM70808269 INDEX 00 21:15:01 INDEX 01 21:16:00 TRACK 05 AUDIO TITLE "Little Man You've Had A Busy Day" PERFORMER "Johnny Griffin" ISRC DEUM70808270 INDEX 00 30:35:01 INDEX 01 30:39:00 TRACK 06 AUDIO TITLE "All The Things You Are" PERFORMER "Johnny Griffin" ISRC DEUM70808271 INDEX 00 35:56:01 INDEX 01 35:59:00
Francy Boland (piano)
Kenny Clarke (drums)
Johnny Griffin (saxophone)
Jimmy Woode (bass)


Трекер:  [ 29-Янв-2012 14:43 ]

  

Скачать .torrent

Размер .torrent файла 11 KB


Размер: 277 MB
Хэш (hash) релиза: 637cb19e423b1633e1d15da76ed91ac4aa818d66

Еще никто не оставлял запись к записи скачать торрент Johnny Griffin Quartet - Night Lady - 2009, WavPack . Будь первым!

!Обратная связь