Скачать через торрент музыку Johnny Griffin - The Man I Love - 1988, WavPack бесплатно без регистрации torrent

Если у вас наблюдаются проблемы со скриншотами, переходом по ссылками, скачиванием торрентов - проблемы в блокировщике рекламы AdBlock. #хорошегоДня!


Статистика раздачи
Размер:  354 MB   |    Зарегистрирован:  5 лет 8 месяцев   |    .torrent скачан:  31 раз   |   
Раздают:  1  
   
Загрузка...
 
Автор Сообщение

Umakiro

avatar Umakiro


Johnny Griffin - The Man I Love

Жанр: Bop, Hard Bop
Страна-производитель диска: Germany
Год издания диска: 1988
Издатель (лейбл): Black Lion
Номер по каталогу: BLCD-760107
Страна: USA Chicago, IL
Аудиокодек: WavPack (*.wv)
Тип рипа: image+.cue
Битрейт аудио: lossless
Продолжительность: 00:55:42
Источник (релизер): ffsf
Наличие сканов в содержимом раздачи: да
01. The Man I Love [12:18]
02. Hush-a-bye [09:25]
03. Blues For Harvey [12:39]
04. The Masquerade Is Over [13:04]
05. Sophisticated Lady [05:49]
06. Wee [02:27]

Recorded Live At The Montmartre Jazzhus, Copenhagen, March 30,1967
 
Exact Audio Copy V1.0 beta 3 from 29. August 2011

EAC extraction logfile from 21. January 2012, 14:26

Johnny Griffin / The Man I Love

Used drive : HL-DT-STDVDRAM GT20N Adapter: 0 ID: 0

Read mode : SecureUtilize accurate stream : YesDefeat audio cache : YesMake use of C2 pointers : No

Read offset correction : 667Overread into Lead-In and Lead-Out : NoFill up missing offset samples with silence : YesDelete leading and trailing silent blocks : NoNull samples used in CRC calculations : YesUsed interface : Installed external ASPI interface

Used output format : Internal WAV RoutinesSample format : 44.100 Hz; 16 Bit; Stereo

TOC of the extracted CD

Track | Start | Length | Start sector | End sector --------------------------------------------------------- 1 | 0:00.00 | 12:26.35 | 0 | 55984 2 | 12:26.35 | 9:25.53 | 55985 | 98412 3 | 21:52.13 | 12:36.52 | 98413 | 155164 4 | 34:28.65 | 13:02.10 | 155165 | 213824 5 | 47:31.00 | 5:54.20 | 213825 | 240394 6 | 53:25.20 | 2:17.33 | 240395 | 250702

Range status and errors

Selected range

Filename D:\EAC\Johnny Griffin - The Man I Love\Johnny Griffin - The Man I Love.wav

Peak level 95.4 % Extraction speed 2.1 X Range quality 100.0 % Test CRC BDB1BF58 Copy CRC BDB1BF58 Copy OK

No errors occurred

AccurateRip summary

Track 1 not present in databaseTrack 2 not present in databaseTrack 3 not present in databaseTrack 4 not present in databaseTrack 5 not present in databaseTrack 6 not present in database

None of the tracks are present in the AccurateRip database

End of status report

==== Log checksum 846360B83750A1F72A9ECB0D5E7E6984A70DF16015281E99BDB9B3204A8C1C94 ====
 
REM GENRE JazzREM DATE 1967REM DISCID 450D0E06REM COMMENT "ExactAudioCopy v1.0b3"CATALOG 0000000000000PERFORMER "Johnny Griffin"TITLE "The Man I Love"FILE "Johnny Griffin - The Man I Love.wav" WAVE TRACK 01 AUDIO TITLE "The Man I Love" PERFORMER "Johnny Griffin" FLAGS PRE INDEX 01 00:00:00 TRACK 02 AUDIO TITLE "Hush-a-bye" PERFORMER "Johnny Griffin" FLAGS PRE INDEX 00 12:18:05 INDEX 01 12:26:35 TRACK 03 AUDIO TITLE "Blues For Harvey" PERFORMER "Johnny Griffin" FLAGS PRE INDEX 00 21:43:13 INDEX 01 21:52:13 TRACK 04 AUDIO TITLE "The Masquerade Is Over" PERFORMER "Johnny Griffin" FLAGS PRE INDEX 00 34:22:03 INDEX 01 34:28:65 TRACK 05 AUDIO TITLE "Sophisticated Lady" PERFORMER "Johnny Griffin" FLAGS PRE INDEX 00 47:26:70 INDEX 01 47:31:00 TRACK 06 AUDIO TITLE "Wee" PERFORMER "Johnny Griffin" FLAGS PRE INDEX 00 53:15:28 INDEX 01 53:25:20
Johnny Griffin (tenor sax)
Kenny Drew (piano)
Niels-Henning Orsted Pedersen (bass)
Albert "Tootie" Heath (drums)


Трекер:  [ 29-Янв-2012 14:43 ]

  

Скачать .torrent

Размер .torrent файла 14 KB


Размер: 354 MB
Хэш (hash) релиза: 22cba6da3b86752b0380c268ce110a912bbc6fcf

Еще никто не оставлял запись к записи скачать торрент Johnny Griffin - The Man I Love - 1988, WavPack . Будь первым!

!Обратная связь