Скачать через торрент музыку Johnny Griffin Quartet - Unpretentious Delights - 1992, WavPack бесплатно без регистрации torrent

Если у вас наблюдаются проблемы со скриншотами, переходом по ссылками, скачиванием торрентов - проблемы в блокировщике рекламы AdBlock. #хорошегоДня!


Статистика раздачи
Размер:  339 MB   |    Зарегистрирован:  5 лет 8 месяцев   |    .torrent скачан:  24 раза   |   
Раздают:  1  
   
Загрузка...
 
Автор Сообщение

Umakiro

avatar Umakiro


Johnny Griffin Quartet - Unpretentious Delights

Жанр: Bop, Hard Bop
Страна-производитель диска: Italy
Год издания диска: 1992
Издатель (лейбл): WestWind
Номер по каталогу: WW 2078
Страна: USA Chicago, IL
Аудиокодек: WavPack (*.wv)
Тип рипа: image+.cue
Битрейт аудио: lossless
Продолжительность: 00:58:51
Источник (релизер): ffsf
Наличие сканов в содержимом раздачи: да
01. Body And Soul [18:11]
02. All The Things You Are [21:52]
03. A Night In Tunisia [18:48]

Recorded in Warsaw, Poland in October 1978
 
Exact Audio Copy V1.0 beta 3 from 29. August 2011

EAC extraction logfile from 21. January 2012, 12:56

Johnny Griffin / Unpretentious Delights

Used drive : HL-DT-STDVDRAM GT20N Adapter: 0 ID: 0

Read mode : SecureUtilize accurate stream : YesDefeat audio cache : YesMake use of C2 pointers : No

Read offset correction : 667Overread into Lead-In and Lead-Out : NoFill up missing offset samples with silence : YesDelete leading and trailing silent blocks : NoNull samples used in CRC calculations : YesUsed interface : Installed external ASPI interface

Used output format : Internal WAV RoutinesSample format : 44.100 Hz; 16 Bit; Stereo

TOC of the extracted CD

Track | Start | Length | Start sector | End sector --------------------------------------------------------- 1 | 0:00.00 | 18:11.38 | 0 | 81862 2 | 18:11.38 | 21:52.25 | 81863 | 180287 3 | 40:03.63 | 18:48.00 | 180288 | 264887

Range status and errors

Selected range

Filename D:\EAC\Johnny Griffin - Unpretentious Delights\Johnny Griffin - Unpretentious Delights.wav

Peak level 100.0 % Extraction speed 4.1 X Range quality 99.9 % Test CRC 743FBD23 Copy CRC 743FBD23 Copy OK

No errors occurred

AccurateRip summary

Track 1 accurately ripped (confidence 1) [0F02B9F9] (AR v1)Track 2 accurately ripped (confidence 1) [1B1E9508] (AR v1)Track 3 cannot be verified as accurate (confidence 1) [FFDCF273], AccurateRip returned [4D27F7C1] (AR v2)

2 track(s) accurately ripped 1 track(s) could not be verified as accurate

Some tracks could not be verified as accurate

End of status report

==== Log checksum 9924873B259536049142483A941AA65F63F91BF7F7072CF9ED2295031D94206F ====
 
REM GENRE JazzREM DATE 1992REM DISCID 1A0DCB03REM COMMENT "ExactAudioCopy v1.0b3"PERFORMER "Johnny Griffin"TITLE "Unpretentious Delights"FILE "Johnny Griffin - Unpretentious Delights.wav" WAVE TRACK 01 AUDIO TITLE "Body And Soul" PERFORMER "Johnny Griffin" INDEX 01 00:00:00 TRACK 02 AUDIO TITLE "All The Things You Are" PERFORMER "Johnny Griffin" INDEX 01 18:11:38 TRACK 03 AUDIO TITLE "A Night In Tunisia" PERFORMER "Johnny Griffin" INDEX 01 40:03:63
Johnny Griffin (saxophone)
Pat Coil (piano)
Marc Johnson (bass)
Art Taylor (drums)


Трекер:  [ 29-Янв-2012 14:42 ]

  

Скачать .torrent

Размер .torrent файла 14 KB


Размер: 339 MB
Хэш (hash) релиза: aeb942aaa51cf79e43c5edb5ad4ef3991f2f3d03

Еще никто не оставлял запись к записи скачать торрент Johnny Griffin Quartet - Unpretentious Delights - 1992, WavPack . Будь первым!

!Обратная связь