Скачать через торрент музыку Wild Bill Davison - The Jazz Giants - 2000, FLAC бесплатно без регистрации torrent

Если у вас наблюдаются проблемы со скриншотами, переходом по ссылками, скачиванием торрентов - проблемы в блокировщике рекламы AdBlock. #хорошегоДня!


Статистика раздачи
Размер:  220 MB   |    Зарегистрирован:  5 лет 8 месяцев   |    .torrent скачан:  38 раз   |   
Раздают:  1  
   
Загрузка...
 
Автор Сообщение

Umakiro

avatar Umakiro


Wild Bill Davison - The Jazz Giants

Жанр: Swing, New Orleans Jazz, Dixieland
Страна-производитель диска: Canada
Год издания диска: 2000
Издатель (лейбл): Sackville
Номер по каталогу: SKCD2-3002
Страна: US Defiance, OH
Аудиокодек: FLAC (*.flac)
Тип рипа: tracks+.cue
Битрейт аудио: lossless
Продолжительность: 00:48:13
Источник (релизер): сеть
Наличие сканов в содержимом раздачи: да
01. Struttin With Some Barbecue [07:49]
02. Dardanella [04:17]
03. Black And Blue [06:12]
04. I Would Do Anything For You [05:40]
05. I Found A New Baby [04:24]
06. Blue Again [03:33]
07. I Surrender Dear [05:14]
08. Yesterdays [06:01]
09. Them There Eyes [05:03]

Recorded: Hallmark Studios, Toronto, CA (03/27/1968/03/29/1968)
 
Exact Audio Copy V1.0 beta 1 from 15. November 2010

EAC extraction logfile from 21. January 2012, 18:20

Wild Bill Davison / The Jazz Giants

Used drive : SONY DVD RW DRU-810A Adapter: 1 ID: 5

Read mode : SecureUtilize accurate stream : YesDefeat audio cache : YesMake use of C2 pointers : No

Read offset correction : 618Overread into Lead-In and Lead-Out : NoFill up missing offset samples with silence : YesDelete leading and trailing silent blocks : NoNull samples used in CRC calculations : YesUsed interface : Installed external ASPI interfaceGap handling : Appended to previous track

Used output format : User Defined EncoderSelected bitrate : 768 kBit/sQuality : HighAdd ID3 tag : NoCommand line compressor : C:\Program Files\Exact Audio Copy-NEW\Flac\flac.exeAdditional command line options : -8 -V -T "ARTIST=%a" -T "TITLE=%t" -T "ALBUM=%g" -T "DATE=%y" -T "TRACKNUMBER=%n" -T "TOTALTRACKS=%x" -T "GENRE=%m" -T "ALBUMARTIST=%v" -T "ALBUM ARTIST=%v" -T "COMMENT=EAC V1.01b1, Secure Mode, Test & Copy, AccurateRip, FL

TOC of the extracted CD

Track | Start | Length | Start sector | End sector --------------------------------------------------------- 1 | 0:00.00 | 7:49.62 | 0 | 35236 2 | 7:49.62 | 4:17.63 | 35237 | 54574 3 | 12:07.50 | 6:12.32 | 54575 | 82506 4 | 18:20.07 | 5:40.35 | 82507 | 108041 5 | 24:00.42 | 4:24.40 | 108042 | 127881 6 | 28:25.07 | 3:33.60 | 127882 | 143916 7 | 31:58.67 | 5:14.18 | 143917 | 167484 8 | 37:13.10 | 6:01.15 | 167485 | 194574 9 | 43:14.25 | 5:03.22 | 194575 | 217321

Track 1

Filename J:\New Rips\Wild Bill Davison - The Jazz Giants (1968) [FLAC]\01 - Struttin With Some Barbecue.wav

Pre-gap length 0:00:02.00

Peak level 98.7 % Extraction speed 4.9 X Track quality 100.0 % Test CRC C361D8C5 Copy CRC C361D8C5 Track not present in AccurateRip database Copy OK

Track 2

Filename J:\New Rips\Wild Bill Davison - The Jazz Giants (1968) [FLAC]\02 - Dardanella.wav

Pre-gap length 0:00:02.32

Peak level 94.5 % Extraction speed 5.3 X Track quality 100.0 % Test CRC 99D7A455 Copy CRC 99D7A455 Track not present in AccurateRip database Copy OK

Track 3

Filename J:\New Rips\Wild Bill Davison - The Jazz Giants (1968) [FLAC]\03 - Black And Blue.wav

Pre-gap length 0:00:02.50

Peak level 91.9 % Extraction speed 6.0 X Track quality 100.0 % Test CRC 88335702 Copy CRC 88335702 Track not present in AccurateRip database Copy OK

Track 4

Filename J:\New Rips\Wild Bill Davison - The Jazz Giants (1968) [FLAC]\04 - I Would Do Anything For You.wav

Pre-gap length 0:00:02.45

Peak level 88.9 % Extraction speed 6.5 X Track quality 100.0 % Test CRC 0431351F Copy CRC 0431351F Track not present in AccurateRip database Copy OK

Track 5

Filename J:\New Rips\Wild Bill Davison - The Jazz Giants (1968) [FLAC]\05 - I Found A New Baby.wav

Pre-gap length 0:00:02.52

Peak level 93.5 % Extraction speed 6.7 X Track quality 100.0 % Test CRC BB0AD517 Copy CRC BB0AD517 Track not present in AccurateRip database Copy OK

Track 6

Filename J:\New Rips\Wild Bill Davison - The Jazz Giants (1968) [FLAC]\06 - Blue Again.wav

Pre-gap length 0:00:02.42

Peak level 98.7 % Extraction speed 6.7 X Track quality 100.0 % Test CRC 3964425D Copy CRC 3964425D Track not present in AccurateRip database Copy OK

Track 7

Filename J:\New Rips\Wild Bill Davison - The Jazz Giants (1968) [FLAC]\07 - I Surrender Dear.wav

Pre-gap length 0:00:03.20

Peak level 95.5 % Extraction speed 7.4 X Track quality 100.0 % Test CRC CE9F9600 Copy CRC CE9F9600 Track not present in AccurateRip database Copy OK

Track 8

Filename J:\New Rips\Wild Bill Davison - The Jazz Giants (1968) [FLAC]\08 - Yesterdays.wav

Pre-gap length 0:00:02.60

Peak level 66.1 % Extraction speed 7.9 X Track quality 100.0 % Test CRC 0E665341 Copy CRC 0E665341 Track not present in AccurateRip database Copy OK

Track 9

Filename J:\New Rips\Wild Bill Davison - The Jazz Giants (1968) [FLAC]\09 - Them There Eyes.wav

Pre-gap length 0:00:02.40

Peak level 96.1 % Extraction speed 8.1 X Track quality 100.0 % Test CRC 3A2EE707 Copy CRC 3A2EE707 Track not present in AccurateRip database Copy OK

None of the tracks are present in the AccurateRip database

No errors occurred

End of status report

==== Log checksum 6735B1B1FEDB6425DBEEFF951A4230344923A1DAD267C9CB52BFF69477F92F59 ====
 
REM GENRE JazzREM DATE 1968REM DISCID 6C0B5109REM COMMENT "ExactAudioCopy v1.0b1"PERFORMER "Wild Bill Davison"TITLE "The Jazz Giants"FILE "01 - Struttin With Some Barbecue.flac" WAVE TRACK 01 AUDIO TITLE "Struttin With Some Barbecue" PERFORMER "Wild Bill Davison" FLAGS DCP INDEX 01 00:00:00 TRACK 02 AUDIO TITLE "Dardanella" PERFORMER "Wild Bill Davison" FLAGS DCP INDEX 00 07:47:30FILE "02 - Dardanella.flac" WAVE INDEX 01 00:00:00 TRACK 03 AUDIO TITLE "Black And Blue" PERFORMER "Wild Bill Davison" FLAGS DCP INDEX 00 04:15:13FILE "03 - Black And Blue.flac" WAVE INDEX 01 00:00:00 TRACK 04 AUDIO TITLE "I Would Do Anything For You" PERFORMER "Wild Bill Davison" FLAGS DCP INDEX 00 06:09:62FILE "04 - I Would Do Anything For You.flac" WAVE INDEX 01 00:00:00 TRACK 05 AUDIO TITLE "I Found A New Baby" PERFORMER "Wild Bill Davison" FLAGS DCP INDEX 00 05:37:58FILE "05 - I Found A New Baby.flac" WAVE INDEX 01 00:00:00 TRACK 06 AUDIO TITLE "Blue Again" PERFORMER "Wild Bill Davison" FLAGS DCP INDEX 00 04:21:73FILE "06 - Blue Again.flac" WAVE INDEX 01 00:00:00 TRACK 07 AUDIO TITLE "I Surrender Dear" PERFORMER "Wild Bill Davison" FLAGS DCP INDEX 00 03:30:40FILE "07 - I Surrender Dear.flac" WAVE INDEX 01 00:00:00 TRACK 08 AUDIO TITLE "Yesterdays" PERFORMER "Wild Bill Davison" FLAGS DCP INDEX 00 05:11:33FILE "08 - Yesterdays.flac" WAVE INDEX 01 00:00:00 TRACK 09 AUDIO TITLE "Them There Eyes" PERFORMER "Wild Bill Davison" FLAGS DCP INDEX 00 05:58:50FILE "09 - Them There Eyes.flac" WAVE INDEX 01 00:00:00
Wild Bill Davison (trumpet)
Herb Hall (clarinet)
Benny Morton (trombone)
Claude Hopkins (piano)
Buzzy Drootin (drums)


Трекер:  [ 29-Янв-2012 14:42 ]

  

Скачать .torrent

Размер .torrent файла 19 KB


Размер: 220 MB
Хэш (hash) релиза: a0eee1f1833cb9bf83cfe8e56c609567807ef293

Еще никто не оставлял запись к записи скачать торрент Wild Bill Davison - The Jazz Giants - 2000, FLAC . Будь первым!

!Обратная связь