Скачать через торрент музыку Clifford Jordan Quintet featuring Junior Cook - Two Tenor Winner - 1985, FLAC бесплатно без регистрации torrent

Если у вас наблюдаются проблемы со скриншотами, переходом по ссылками, скачиванием торрентов - проблемы в блокировщике рекламы AdBlock. #хорошегоДня!


Статистика раздачи
Размер:  323 MB   |    Зарегистрирован:  5 лет 8 месяцев   |    .torrent скачан:  40 раз   |   
Раздают:  1  
   
Загрузка...
 
Автор Сообщение

Umakiro

avatar Umakiro


Clifford Jordan Quintet featuring Junior Cook - Two Tenor Winner

Жанр: Hard Bop
Страна-производитель диска: Holland
Год издания диска: 1985
Издатель (лейбл): Criss Cross
Номер по каталогу: 1011 CD
Страна: USA Chicago, IL
Аудиокодек: FLAC (*.flac)
Тип рипа: image+.cue
Битрейт аудио: lossless
Продолжительность: 00:49:34
Источник (релизер): janwal46
Наличие сканов в содержимом раздачи: да
01. Half And Half [09:46]
02. Song Of Her [05:12]
03. Groovin' High [10:03]
04. The Water Bearer [07:59]
05. Make The Man Love Me [06:15]
06. Two Tenor Winner [07:28]
07. Doug's Prelude [02:50]

Recorded By Max Bolleman At Studio 44, Monster, The Netherlands, October 1, 1984
 
Exact Audio Copy V0.99 prebeta 5 from 4. May 2009

EAC extraction logfile from 29. August 2009, 23:38

Clifford Jordan Quintet / Two Tenor Winner

Used drive : _NEC DVD_RW ND-3520A Adapter: 1 ID: 1

Read mode : SecureUtilize accurate stream : YesDefeat audio cache : YesMake use of C2 pointers : No

Read offset correction : 48Overread into Lead-In and Lead-Out : NoFill up missing offset samples with silence : YesDelete leading and trailing silent blocks : NoNull samples used in CRC calculations : NoUsed interface : Native Win32 interface for Win NT & 2000

Used output format : Internal WAV RoutinesSample format : 44.100 Hz; 16 Bit; Stereo

TOC of the extracted CD

Track | Start | Length | Start sector | End sector --------------------------------------------------------- 1 | 0:00.00 | 9:51.68 | 0 | 44392 2 | 9:51.68 | 5:11.47 | 44393 | 67764 3 | 15:03.40 | 10:00.53 | 67765 | 112817 4 | 25:04.18 | 8:03.05 | 112818 | 149047 5 | 33:07.23 | 6:12.70 | 149048 | 177017 6 | 39:20.18 | 7:29.52 | 177018 | 210744 7 | 46:49.70 | 2:43.65 | 210745 | 223034

Range status and errors

Selected range

Filename G:\AVAXHOME\Clifford Jordan Quintet - Two Tenor Winner (1984)\Clifford Jordan Quintet - Two Tenor Winner.wav

Peak level 89.5 % Range quality 100.0 % Copy CRC 2AD17A12 Copy OK

No errors occurred

AccurateRip summary

Track 1 not present in databaseTrack 2 not present in databaseTrack 3 not present in databaseTrack 4 not present in databaseTrack 5 not present in databaseTrack 6 not present in databaseTrack 7 not present in database

None of the tracks are present in the AccurateRip database

End of status report
 
REM GENRE JazzREM DATE 1984REM DISCID 610B9D07REM COMMENT "ExactAudioCopy v0.99pb5"PERFORMER "Clifford Jordan Quintet"TITLE "Two Tenor Winner"FILE "Clifford Jordan Quintet - Two Tenor Winner.wav" WAVE TRACK 01 AUDIO TITLE "Half And Half" PERFORMER "Clifford Jordan Quintet" INDEX 01 00:00:00 TRACK 02 AUDIO TITLE "Song Of Her" PERFORMER "Clifford Jordan Quintet" INDEX 00 09:46:58 INDEX 01 09:51:68 TRACK 03 AUDIO TITLE "Groovin' High" PERFORMER "Clifford Jordan Quintet" INDEX 00 14:58:15 INDEX 01 15:03:40 TRACK 04 AUDIO TITLE "The Water Bearer" PERFORMER "Clifford Jordan Quintet" INDEX 00 25:01:28 INDEX 01 25:04:18 TRACK 05 AUDIO TITLE "Make The Man Love Me" PERFORMER "Clifford Jordan Quintet" INDEX 00 33:00:38 INDEX 01 33:07:23 TRACK 06 AUDIO TITLE "Two Tenor Winner" PERFORMER "Clifford Jordan Quintet" INDEX 00 39:15:15 INDEX 01 39:20:18 TRACK 07 AUDIO TITLE "Doug's Prelude" PERFORMER "Clifford Jordan Quintet" INDEX 00 46:43:15 INDEX 01 46:49:70
Clifford Jordan _ Tenor Saxophone
Junior Cook - Tenor Saxophone
Kirk Lightsey - Piano
Cecil McBee - Bass
Eddie Gladden – Drums


Трекер:  [ 29-Янв-2012 14:42 ]

  

Скачать .torrent

Размер .torrent файла 13 KB


Размер: 323 MB
Хэш (hash) релиза: 6ba035f312c3937490fee7afcb8732b4829c94ec

Еще никто не оставлял запись к записи скачать торрент Clifford Jordan Quintet featuring Junior Cook - Two Tenor Winner - 1985, FLAC . Будь первым!

!Обратная связь