Скачать через торрент музыку Brian Lynch Sextet - Peer Pressure - 1987, FLAC бесплатно без регистрации torrent

Если у вас наблюдаются проблемы со скриншотами, переходом по ссылками, скачиванием торрентов - проблемы в блокировщике рекламы AdBlock. #хорошегоДня!


Статистика раздачи
Размер:  385 MB   |    Зарегистрирован:  5 лет 8 месяцев   |    .torrent скачан:  28 раз   |   
Раздают:  1  
   
Загрузка...
 
Автор Сообщение

Umakiro

avatar Umakiro


Brian Lynch Sextet - Peer Pressure

Жанр: Straight-Ahead Jazz
Страна-производитель диска: Holland
Год издания диска: 1987
Издатель (лейбл): Criss Cross
Номер по каталогу: 1029 CD/LP
Страна: USA Milwaukee, WI
Аудиокодек: FLAC (*.flac)
Тип рипа: image+.cue
Битрейт аудио: lossless
Продолжительность: 00:54:13
Источник (релизер): janwal46
Наличие сканов в содержимом раздачи: да
01. Thomasville [10:12]
02. Park Avenue Petite [08:48]
03. Peer Pressure [06:04]
04. The Outlaw [07:03]
05. Change of Plan [09:04]
06. 'Nother Never [04:59]
07. I Concentrate on You [08:03]

Recorded December 27, 1986 in Englewood Cliffs, NJ, USA by Rudy Van Gelder
 
Exact Audio Copy V0.99 prebeta 5 from 4. May 2009

EAC extraction logfile from 30. August 2009, 0:15

Bryan Lynch / Peer Pressure

Used drive : _NEC DVD_RW ND-3520A Adapter: 1 ID: 1

Read mode : SecureUtilize accurate stream : YesDefeat audio cache : YesMake use of C2 pointers : No

Read offset correction : 48Overread into Lead-In and Lead-Out : NoFill up missing offset samples with silence : YesDelete leading and trailing silent blocks : NoNull samples used in CRC calculations : NoUsed interface : Native Win32 interface for Win NT & 2000

Used output format : Internal WAV RoutinesSample format : 44.100 Hz; 16 Bit; Stereo

TOC of the extracted CD

Track | Start | Length | Start sector | End sector --------------------------------------------------------- 1 | 0:00.00 | 10:15.00 | 0 | 46124 2 | 10:15.00 | 8:48.00 | 46125 | 85724 3 | 19:03.00 | 6:04.00 | 85725 | 113024 4 | 25:07.00 | 7:03.00 | 113025 | 144749 5 | 32:10.00 | 9:04.00 | 144750 | 185549 6 | 41:14.00 | 5:00.00 | 185550 | 208049 7 | 46:14.00 | 7:59.03 | 208050 | 243977

Range status and errors

Selected range

Filename G:\AVAXHOME\Bryan Lynch - Peer Pressure (1986)\Bryan Lynch - Peer Pressure.wav

Peak level 95.8 % Range quality 100.0 % Copy CRC F6C148F8 Copy OK

No errors occurred

AccurateRip summary

Track 1 not present in databaseTrack 2 not present in databaseTrack 3 not present in databaseTrack 4 not present in databaseTrack 5 not present in databaseTrack 6 not present in databaseTrack 7 not present in database

None of the tracks are present in the AccurateRip database

End of status report
 
REM GENRE JazzREM DATE 1986REM DISCID 620CB507REM COMMENT "ExactAudioCopy v0.99pb5"PERFORMER "Bryan Lynch"TITLE "Peer Pressure"FILE "Bryan Lynch - Peer Pressure.wav" WAVE TRACK 01 AUDIO TITLE "Thomasville" PERFORMER "Bryan Lynch" FLAGS DCP INDEX 01 00:00:00 TRACK 02 AUDIO TITLE "Park Avenue Petite" PERFORMER "Bryan Lynch" FLAGS DCP INDEX 00 10:12:25 INDEX 01 10:15:00 TRACK 03 AUDIO TITLE "Peer Pressure" PERFORMER "Bryan Lynch" FLAGS DCP INDEX 00 19:00:08 INDEX 01 19:03:00 TRACK 04 AUDIO TITLE "The Outlaw" PERFORMER "Bryan Lynch" FLAGS DCP INDEX 00 25:04:38 INDEX 01 25:07:00 TRACK 05 AUDIO TITLE "Change of Plan" PERFORMER "Bryan Lynch" FLAGS DCP INDEX 00 32:07:03 INDEX 01 32:10:00 TRACK 06 AUDIO TITLE "'Nother Never" PERFORMER "Bryan Lynch" FLAGS DCP INDEX 00 41:11:53 INDEX 01 41:14:00 TRACK 07 AUDIO TITLE "I Concentrate on You" PERFORMER "Bryan Lynch" FLAGS DCP INDEX 00 46:10:63 INDEX 01 46:14:00
Brian Lynch - Trumpet
Rakph Moore - Tenor Saxophone
Jim Snidero - Alto Saxophone
Kirk Lightsey - Piano
Jay Anderson - Bass
Victor Lewis – Drums


Трекер:  [ 29-Янв-2012 14:41 ]

  

Скачать .torrent

Размер .torrent файла 16 KB


Размер: 385 MB
Хэш (hash) релиза: dc2bd716dd3544b4d46ef81c425a5953b3dce943

Еще никто не оставлял запись к записи скачать торрент Brian Lynch Sextet - Peer Pressure - 1987, FLAC . Будь первым!

!Обратная связь