Скачать через торрент музыку Max Roach Clifford Brown - Daahoud - 1985, FLAC бесплатно без регистрации torrent

Если у вас наблюдаются проблемы со скриншотами, переходом по ссылками, скачиванием торрентов - проблемы в блокировщике рекламы AdBlock. #хорошегоДня!


Статистика раздачи
Размер:  183 MB   |    Зарегистрирован:  5 лет 8 месяцев   |    .torrent скачан:  37 раз   |   
Раздают:  1  
   
Загрузка...
 
Автор Сообщение

Umakiro

avatar Umakiro


Max Roach / Clifford Brown - Daahoud

Жанр: Hard Bop
Страна-производитель диска: Japan
Год издания диска: 1985
Издатель (лейбл): Mainstream Records
Номер по каталогу: MRL-CD386
Страна: US New Land, NC
Аудиокодек: FLAC (*.flac)
Тип рипа: image+.cue
Битрейт аудио: lossless
Продолжительность: 00:30:06
Источник (релизер): janwal46
Наличие сканов в содержимом раздачи: да
01. Daahoud [04:07]
02. I don't stand a ghost of a chance with you [03:06]
03. Joyspring [06:54]
04. I get a kick out of you [07:41]
05. These foolish things remind me of you [03:40]
06. Mildama [04:38]
 
Exact Audio Copy V0.99 prebeta 5 from 4. May 2009

EAC extraction logfile from 3. September 2009, 13:25

Max Roach & Clifford Brown / Daahoud

Used drive : _NEC DVD_RW ND-3520A Adapter: 1 ID: 1

Read mode : SecureUtilize accurate stream : YesDefeat audio cache : YesMake use of C2 pointers : No

Read offset correction : 48Overread into Lead-In and Lead-Out : NoFill up missing offset samples with silence : YesDelete leading and trailing silent blocks : NoNull samples used in CRC calculations : NoUsed interface : Native Win32 interface for Win NT & 2000

Used output format : Internal WAV RoutinesSample format : 44.100 Hz; 16 Bit; Stereo

TOC of the extracted CD

Track | Start | Length | Start sector | End sector --------------------------------------------------------- 1 | 0:00.00 | 4:09.33 | 0 | 18707 2 | 4:09.33 | 3:06.20 | 18708 | 32677 3 | 7:15.53 | 6:55.40 | 32678 | 63842 4 | 14:11.18 | 7:38.67 | 63843 | 98259 5 | 21:50.10 | 3:41.05 | 98260 | 114839 6 | 25:31.15 | 4:35.05 | 114840 | 135469

Range status and errors

Selected range

Filename G:\AVAXHOME\Max Roach & Clifford Brown - Daahoud (1953)\Max Roach & Clifford Brown - Daahoud.wav

Peak level 100.0 % Range quality 99.9 % Copy CRC 62A7989B Copy OK

No errors occurred

AccurateRip summary

Track 1 not present in databaseTrack 2 not present in databaseTrack 3 not present in databaseTrack 4 not present in databaseTrack 5 not present in databaseTrack 6 not present in database

None of the tracks are present in the AccurateRip database

End of status report
 
REM GENRE JazzREM DATE 1953REM DISCID 3B070E06REM COMMENT "ExactAudioCopy v0.99pb5"PERFORMER "Max Roach & Clifford Brown"TITLE "Daahoud"FILE "Max Roach & Clifford Brown - Daahoud.wav" WAVE TRACK 01 AUDIO TITLE "Daahoud" PERFORMER "Max Roach & Clifford Brown" INDEX 01 00:00:00 TRACK 02 AUDIO TITLE "I don't stand a ghost of a chance with you" PERFORMER "Max Roach & Clifford Brown" INDEX 00 04:07:68 INDEX 01 04:09:33 TRACK 03 AUDIO TITLE "Joyspring" PERFORMER "Max Roach & Clifford Brown" INDEX 00 07:13:45 INDEX 01 07:15:53 TRACK 04 AUDIO TITLE "I get a kick out of you" PERFORMER "Max Roach & Clifford Brown" INDEX 00 14:07:69 INDEX 01 14:11:18 TRACK 05 AUDIO TITLE "These foolish things remind me of you" PERFORMER "Max Roach & Clifford Brown" INDEX 00 21:48:18 INDEX 01 21:50:10 TRACK 06 AUDIO TITLE "Mildama" PERFORMER "Max Roach & Clifford Brown" INDEX 00 25:28:69 INDEX 01 25:31:15
Clifford Brown – Trumpet
Max Roach – Drums
Harold Land – Tenor Saxophone
George Morrow – Bass
Richie Powell - Piano


Трекер:  [ 29-Янв-2012 14:41 ]

  

Скачать .torrent

Размер .torrent файла 15 KB


Размер: 183 MB
Хэш (hash) релиза: baf2104f5a3d8d900d3dfd988c93fdea89862e09

Еще никто не оставлял запись к записи скачать торрент Max Roach Clifford Brown - Daahoud - 1985, FLAC . Будь первым!

!Обратная связь