Скачать через торрент музыку Hank Crawford - Wildflower - 1987, FLAC бесплатно без регистрации torrent

Если у вас наблюдаются проблемы со скриншотами, переходом по ссылками, скачиванием торрентов - проблемы в блокировщике рекламы AdBlock. #хорошегоДня!


Статистика раздачи
Размер:  192 MB   |    Зарегистрирован:  5 лет 8 месяцев   |    .torrent скачан:  48 раз   |   
Раздают:  1  
   
Загрузка...
 
Автор Сообщение

Umakiro

avatar Umakiro


Hank Crawford - Wildflower

Жанр: Soul Jazz, Crossover Jazz
Страна-производитель диска: England
Год издания диска: 1987
Издатель (лейбл): Epic-CTI Recordings
Номер по каталогу: EPC 4505662
Страна: US Memphis, TN
Аудиокодек: FLAC (*.flac)
Тип рипа: image+.cue
Битрейт аудио: lossless
Продолжительность: 00:31:22
Источник (релизер): janwal46
Наличие сканов в содержимом раздачи: да
01. Corazon [06:05]
02. Wildflower [03:19]
03. Mr. Blues [06:06]
04. Youґve Got It Bad Girl [09:41]
05. Good Morning Heartache [06:11]

Recorded By Rudy Van Gelder At His Recording Studio, Englewood Cliffs, NJ, June 28-29, 1973
 
Exact Audio Copy V0.99 prebeta 5 from 4. May 2009

EAC extraction logfile from 1. September 2009, 0:40

Hank Crawford / Wildflower

Used drive : _NEC DVD_RW ND-3520A Adapter: 1 ID: 1

Read mode : SecureUtilize accurate stream : YesDefeat audio cache : YesMake use of C2 pointers : No

Read offset correction : 48Overread into Lead-In and Lead-Out : NoFill up missing offset samples with silence : YesDelete leading and trailing silent blocks : NoNull samples used in CRC calculations : NoUsed interface : Native Win32 interface for Win NT & 2000

Used output format : Internal WAV RoutinesSample format : 44.100 Hz; 16 Bit; Stereo

TOC of the extracted CD

Track | Start | Length | Start sector | End sector --------------------------------------------------------- 1 | 0:00.00 | 6:05.07 | 0 | 27381 2 | 6:05.07 | 3:19.00 | 27382 | 42306 3 | 9:24.07 | 6:07.73 | 42307 | 69904 4 | 15:32.05 | 9:41.05 | 69905 | 113484 5 | 25:13.10 | 6:09.52 | 113485 | 141211

Range status and errors

Selected range

Filename G:\AVAXHOME\Hank Crawford - Wildflower (1973)\Hank Crawford - Wildflower.wav

Peak level 100.0 % Range quality 99.9 % Copy CRC E4C11979 Copy OK

No errors occurred

AccurateRip summary

Track 1 not present in databaseTrack 2 not present in databaseTrack 3 not present in databaseTrack 4 not present in databaseTrack 5 not present in database

None of the tracks are present in the AccurateRip database

End of status report
 
REM GENRE JazzREM DATE 1973REM DISCID 3F075A05REM COMMENT "ExactAudioCopy v0.99pb5"PERFORMER "Hank Crawford"TITLE "Wildflower"FILE "Hank Crawford - Wildflower.wav" WAVE TRACK 01 AUDIO TITLE "Corazon" PERFORMER "Hank Crawford" INDEX 01 00:00:00 TRACK 02 AUDIO TITLE "Wildflower" PERFORMER "Hank Crawford" INDEX 01 06:05:07 TRACK 03 AUDIO TITLE "Mr. Blues" PERFORMER "Hank Crawford" INDEX 01 09:24:07 TRACK 04 AUDIO TITLE "Youґve Got It Bad Girl" PERFORMER "Hank Crawford" INDEX 00 15:30:17 INDEX 01 15:32:05 TRACK 05 AUDIO TITLE "Good Morning Heartache" PERFORMER "Hank Crawford" INDEX 00 25:11:10 INDEX 01 25:13:10
Hank Crawford - Alto Saxophone
Richard Tee - Piano & Organ
Bob Cranshaw - Bass
Idris Muhammad - Drums
For Other Personnel See Booklet


Трекер:  [ 29-Янв-2012 14:41 ]

  

Скачать .torrent

Размер .torrent файла 16 KB


Размер: 192 MB
Хэш (hash) релиза: e093c2e094ef81623a0a0cb0e8ee1e22121bf711

Еще никто не оставлял запись к записи скачать торрент Hank Crawford - Wildflower - 1987, FLAC . Будь первым!

!Обратная связь