Скачать через торрент музыку Ralph Moore Quartet - 623 C Street - 1987, FLAC бесплатно без регистрации torrent

Если у вас наблюдаются проблемы со скриншотами, переходом по ссылками, скачиванием торрентов - проблемы в блокировщике рекламы AdBlock. #хорошегоДня!


Статистика раздачи
Размер:  415 MB   |    Зарегистрирован:  5 лет 8 месяцев   |    .torrent скачан:  24 раза   |   
Раздают:  1  
   
Загрузка...
 
Автор Сообщение

Umakiro

avatar Umakiro


Ralph Moore Quartet - 623 C Street

Жанр: Hard Bop
Страна-производитель диска: Holland
Год издания диска: 1987
Издатель (лейбл): Criss Cross
Номер по каталогу: 1028 CD
Страна: London, England
Аудиокодек: FLAC (*.flac)
Тип рипа: image+.cue
Битрейт аудио: lossless
Продолжительность: 00:59:44
Источник (релизер): janwal46
Наличие сканов в содержимом раздачи: да
01. Un Poco Loco [10:19]
02. Christina [04:42]
03. Black Diamond [06:06]
04. It Never Entered My Mind [06:53]
05. Cecilia [07:27]
06. 623 C Street [08:48]
07. Deceptacon [07:05]
08. Speak Low [08:24]

Recorded February 27, 1987 & December 31, 1987 in Englewood Cliffs, NJ, USA by Rudy Van Gelder
 
Exact Audio Copy V0.99 prebeta 5 from 4. May 2009

EAC extraction logfile from 31. August 2009, 11:17

Ralph Moore Quartet / 623 C Street

Used drive : _NEC DVD_RW ND-3520A Adapter: 1 ID: 1

Read mode : SecureUtilize accurate stream : YesDefeat audio cache : YesMake use of C2 pointers : No

Read offset correction : 48Overread into Lead-In and Lead-Out : NoFill up missing offset samples with silence : YesDelete leading and trailing silent blocks : NoNull samples used in CRC calculations : NoUsed interface : Native Win32 interface for Win NT & 2000

Used output format : Internal WAV RoutinesSample format : 44.100 Hz; 16 Bit; Stereo

TOC of the extracted CD

Track | Start | Length | Start sector | End sector --------------------------------------------------------- 1 | 0:00.00 | 10:22.00 | 0 | 46649 2 | 10:22.00 | 4:42.00 | 46650 | 67799 3 | 15:04.00 | 6:06.00 | 67800 | 95249 4 | 21:10.00 | 6:53.00 | 95250 | 126224 5 | 28:03.00 | 7:27.00 | 126225 | 159749 6 | 35:30.00 | 8:49.00 | 159750 | 199424 7 | 44:19.00 | 7:05.00 | 199425 | 231299 8 | 51:24.00 | 8:20.58 | 231300 | 268857

Range status and errors

Selected range

Filename G:\AVAXHOME\Ralph Moore Quartet - 623 C Street (1987)\Ralph Moore Quartet - 623 C Street.wav

Peak level 95.3 % Range quality 100.0 % Copy CRC B3093E7B Copy OK

No errors occurred

AccurateRip summary

Track 1 not present in databaseTrack 2 not present in databaseTrack 3 not present in databaseTrack 4 not present in databaseTrack 5 not present in databaseTrack 6 not present in databaseTrack 7 not present in databaseTrack 8 not present in database

None of the tracks are present in the AccurateRip database

End of status report
 
REM GENRE JazzREM DATE 1987REM DISCID 650E0008REM COMMENT "ExactAudioCopy v0.99pb5"PERFORMER "Ralph Moore Quartet"TITLE "623 C Street"FILE "Ralph Moore Quartet - 623 C Street.wav" WAVE TRACK 01 AUDIO TITLE "Un Poco Loco" PERFORMER "Ralph Moore Quartet" INDEX 01 00:00:00 TRACK 02 AUDIO TITLE "Christina" PERFORMER "Ralph Moore Quartet" INDEX 00 10:19:08 INDEX 01 10:22:00 TRACK 03 AUDIO TITLE "Black Diamond" PERFORMER "Ralph Moore Quartet" INDEX 00 15:01:28 INDEX 01 15:04:00 TRACK 04 AUDIO TITLE "It Never Entered My Mind" PERFORMER "Ralph Moore Quartet" INDEX 00 21:07:38 INDEX 01 21:10:00 TRACK 05 AUDIO TITLE "Cecilia" PERFORMER "Ralph Moore Quartet" INDEX 00 28:00:25 INDEX 01 28:03:00 TRACK 06 AUDIO TITLE "623 C Street" PERFORMER "Ralph Moore Quartet" INDEX 00 35:27:38 INDEX 01 35:30:00 TRACK 07 AUDIO TITLE "Deceptacon" PERFORMER "Ralph Moore Quartet" INDEX 00 44:15:65 INDEX 01 44:19:00 TRACK 08 AUDIO TITLE "Speak Low" PERFORMER "Ralph Moore Quartet" INDEX 00 51:20:33 INDEX 01 51:24:00
Ralph Moore - Tenor Saxophone & Soprano Saxophone (02 & 05)
Dave Kikoski - Piano
Buster Williams - Bass
Billy Hart – Drums


Трекер:  [ 29-Янв-2012 14:40 ]

  

Скачать .torrent

Размер .torrent файла 17 KB


Размер: 415 MB
Хэш (hash) релиза: 53506305c16b311272e071d50a7f0399c070c3c0

Еще никто не оставлял запись к записи скачать торрент Ralph Moore Quartet - 623 C Street - 1987, FLAC . Будь первым!

!Обратная связь