Скачать через торрент музыку Slide Hampton Quintet featuring Clifford Jordan - Roots - 1985, FLAC бесплатно без регистрации torrent

Если у вас наблюдаются проблемы со скриншотами, переходом по ссылками, скачиванием торрентов - проблемы в блокировщике рекламы AdBlock. #хорошегоДня!


Статистика раздачи
Размер:  438 MB   |    Зарегистрирован:  5 лет 8 месяцев   |    .torrent скачан:  41 раз   |   
Раздают:  1  
   
Загрузка...
 
Автор Сообщение

Umakiro

avatar Umakiro


Slide Hampton Quintet featuring Clifford Jordan - Roots

Жанр: Hard Bop, Trombone
Страна-производитель диска: Holland
Год издания диска: 1985
Издатель (лейбл): Criss Cross
Номер по каталогу: 1015CD
Страна: US Jeannette, PA
Аудиокодек: FLAC (*.flac)
Тип рипа: image+.cue
Битрейт аудио: lossless
Продолжительность: 01:10:40
Источник (релизер): janwal46
Наличие сканов в содержимом раздачи: да
01. Precipice [10:22]
02. Solar [11:41]
03. Roots [08:26]
04. Maple Street [09:27]
05. My Old Flame [10:44]
06. Just In Time [04:15]
07. Precipice (Take 1) [10:26]
08. Barbados [05:19]

Recorded April 17, 1985 in Monster, The Netherlands by Max Bolleman
 
Exact Audio Copy V0.99 prebeta 4 from 23. January 2008

EAC extraction logfile from 27. August 2009, 21:51

Slide Hampton Quintet / Roots

Used drive : _NEC DVD_RW ND-3520A Adapter: 1 ID: 1

Read mode : SecureUtilize accurate stream : YesDefeat audio cache : YesMake use of C2 pointers : No

Read offset correction : 48Overread into Lead-In and Lead-Out : NoFill up missing offset samples with silence : YesDelete leading and trailing silent blocks : NoNull samples used in CRC calculations : NoUsed interface : Native Win32 interface for Win NT & 2000

Used output format : Internal WAV RoutinesSample format : 44.100 Hz; 16 Bit; Stereo

TOC of the extracted CD

Track | Start | Length | Start sector | End sector --------------------------------------------------------- 1 | 0:00.00 | 10:26.57 | 0 | 47006 2 | 10:26.57 | 11:39.20 | 47007 | 99451 3 | 22:06.02 | 8:28.03 | 99452 | 137554 4 | 30:34.05 | 9:25.35 | 137555 | 179964 5 | 39:59.40 | 10:44.12 | 179965 | 228276 6 | 50:43.52 | 4:16.35 | 228277 | 247511 7 | 55:00.12 | 10:23.05 | 247512 | 294241 8 | 65:23.17 | 5:16.63 | 294242 | 318004

Range status and errors

Selected range

Filename G:\AVAXHOME\Slide Hampton Quintet - Roots (1985)\Slide Hampton Quintet - Roots.wav

Peak level 78.3 % Range quality 99.9 % Copy CRC 1B2035A4 Copy OK

No errors occurred

AccurateRip summary

Track 1 accurately ripped (confidence 1) [671D1B8F]Track 2 accurately ripped (confidence 1) [EA4CD30F]Track 3 accurately ripped (confidence 1) [CEF6EDB0]Track 4 accurately ripped (confidence 1) [498CE149]Track 5 accurately ripped (confidence 1) [FAF99FC7]Track 6 accurately ripped (confidence 1) [8B79E8A5]Track 7 accurately ripped (confidence 1) [31709033]Track 8 accurately ripped (confidence 1) [5BB3DBAE]

All tracks accurately ripped

End of status report
 
REM GENRE JazzREM DATE 1985REM DISCID 60109008REM COMMENT "ExactAudioCopy v0.99pb4"PERFORMER "Slide Hampton Quintet"TITLE "Roots"FILE "Slide Hampton Quintet - Roots.wav" WAVE TRACK 01 AUDIO TITLE "Precipice" PERFORMER "Slide Hampton Quintet" INDEX 01 00:00:00 TRACK 02 AUDIO TITLE "Solar" PERFORMER "Slide Hampton Quintet" INDEX 00 10:22:10 INDEX 01 10:26:57 TRACK 03 AUDIO TITLE "Roots" PERFORMER "Slide Hampton Quintet" INDEX 00 22:03:27 INDEX 01 22:06:02 TRACK 04 AUDIO TITLE "Maple Street" PERFORMER "Slide Hampton Quintet" INDEX 00 30:29:57 INDEX 01 30:34:05 TRACK 05 AUDIO TITLE "My Old Flame" PERFORMER "Slide Hampton Quintet" INDEX 00 39:56:67 INDEX 01 39:59:40 TRACK 06 AUDIO TITLE "Just In Time" PERFORMER "Slide Hampton Quintet" INDEX 00 50:40:10 INDEX 01 50:43:52 TRACK 07 AUDIO TITLE "Precipice (Take 1)" PERFORMER "Slide Hampton Quintet" INDEX 00 54:55:10 INDEX 01 55:00:12 TRACK 08 AUDIO TITLE "Barbados" PERFORMER "Slide Hampton Quintet" INDEX 00 65:21:65 INDEX 01 65:23:17
Slide Hampton - Trombone
Clifford Jordan - Tenor Saxophone
Cedar Walton - Piano
David Williams - Bass
Billy Higgins – Drums


Трекер:  [ 29-Янв-2012 14:40 ]

  

Скачать .torrent

Размер .torrent файла 18 KB


Размер: 438 MB
Хэш (hash) релиза: 94ea2df5a88ee6b7826e97e87b5459afc550bf57

Еще никто не оставлял запись к записи скачать торрент Slide Hampton Quintet featuring Clifford Jordan - Roots - 1985, FLAC . Будь первым!

!Обратная связь