Скачать через торрент музыку Michael Weiss Quintet - Presenting Michael Weiss - 1986, FLAC бесплатно без регистрации torrent

Если у вас наблюдаются проблемы со скриншотами, переходом по ссылками, скачиванием торрентов - проблемы в блокировщике рекламы AdBlock. #хорошегоДня!


Статистика раздачи
Размер:  352 MB   |    Зарегистрирован:  5 лет 8 месяцев   |    .torrent скачан:  25 раз   |   
Раздают:  1  
   
Загрузка...
 
Автор Сообщение

Umakiro

avatar Umakiro


Michael Weiss Quintet - Presenting Michael Weiss

Жанр: Hard Bop, Post-Bop
Страна-производитель диска: Holland
Год издания диска: 1986
Издатель (лейбл): Criss Cross
Номер по каталогу: 1022 CD
Страна: USA Dallas, TX
Аудиокодек: FLAC (*.flac)
Тип рипа: image+.cue
Битрейт аудио: lossless
Продолжительность: 00:51:01
Источник (релизер): janwal46
Наличие сканов в содержимом раздачи: да
01. My Melancholy Baby [09:07]
02. Apres Vous [06:21]
03. Enigma [06:42]
04. B.G.O. [06:38]
05. Riverbed [06:53]
06. Gallop's Gallop [07:35]
07. La Villa [07:45]

Recorded April 4, 1986 in Englewood Cliffs, NJ, USA by Rudy Van Gelder
 
Exact Audio Copy V0.99 prebeta 4 from 23. January 2008

EAC extraction logfile from 24. August 2009, 23:46

Michael Weiss / Presenting Michael Weiss

Used drive : _NEC DVD_RW ND-3520A Adapter: 1 ID: 1

Read mode : SecureUtilize accurate stream : YesDefeat audio cache : YesMake use of C2 pointers : No

Read offset correction : 48Overread into Lead-In and Lead-Out : NoFill up missing offset samples with silence : YesDelete leading and trailing silent blocks : NoNull samples used in CRC calculations : NoUsed interface : Native Win32 interface for Win NT & 2000

Used output format : Internal WAV RoutinesSample format : 44.100 Hz; 16 Bit; Stereo

TOC of the extracted CD

Track | Start | Length | Start sector | End sector --------------------------------------------------------- 1 | 0:00.00 | 9:10.00 | 0 | 41249 2 | 9:10.00 | 6:21.00 | 41250 | 69824 3 | 15:31.00 | 6:43.00 | 69825 | 100049 4 | 22:14.00 | 6:38.00 | 100050 | 129899 5 | 28:52.00 | 6:53.00 | 129900 | 160874 6 | 35:45.00 | 8:04.00 | 160875 | 197174 7 | 43:49.00 | 7:12.50 | 197175 | 229624

Range status and errors

Selected range

Filename G:\AVAXHOME\Michael Weiss - Presenting Michael Weiss (1986)\Michael Weiss - Presenting Michael Weiss.wav

Peak level 95.3 % Range quality 99.9 % Copy CRC CCF7B098 Copy OK

No errors occurred

AccurateRip summary

Track 1 accurately ripped (confidence 1) [998872AA]Track 2 accurately ripped (confidence 1) [C761FEAD]Track 3 accurately ripped (confidence 1) [469045E4]Track 4 accurately ripped (confidence 1) [1E3E3CE3]Track 5 accurately ripped (confidence 1) [38F33EF3]Track 6 accurately ripped (confidence 1) [F975148C]Track 7 accurately ripped (confidence 1) [8234E03E]

All tracks accurately ripped

End of status report
 
REM GENRE JazzREM DATE 1986REM DISCID 530BF507REM COMMENT "ExactAudioCopy v0.99pb4"PERFORMER "Michael Weiss"TITLE "Presenting Michael Weiss"FILE "Michael Weiss - Presenting Michael Weiss.wav" WAVE TRACK 01 AUDIO TITLE "My Melancholy Baby" PERFORMER "Michael Weiss" INDEX 01 00:00:00 TRACK 02 AUDIO TITLE "Apres Vous" PERFORMER "Michael Weiss" INDEX 00 09:07:20 INDEX 01 09:10:00 TRACK 03 AUDIO TITLE "Enigma" PERFORMER "Michael Weiss" INDEX 00 15:28:48 INDEX 01 15:31:00 TRACK 04 AUDIO TITLE "B.G.O." PERFORMER "Michael Weiss" INDEX 00 22:10:58 INDEX 01 22:14:00 TRACK 05 AUDIO TITLE "Riverbed" PERFORMER "Michael Weiss" INDEX 00 28:48:40 INDEX 01 28:52:00 TRACK 06 AUDIO TITLE "Gallop's Gallop" PERFORMER "Michael Weiss" INDEX 00 35:41:58 INDEX 01 35:45:00 TRACK 07 AUDIO TITLE "La Villa" PERFORMER "Michael Weiss" INDEX 00 43:16:23 INDEX 01 43:49:00
Michael Weiss - Piano
Tom Kirkpatrick - Trumpet
Ralph Lalama - Tenor Saxophone
Ray Drummond - Bass
Kenny Washington – Drums


Трекер:  [ 29-Янв-2012 14:39 ]

  

Скачать .torrent

Размер .torrent файла 15 KB


Размер: 352 MB
Хэш (hash) релиза: 492ca1690b11d958b0810e9603aa17de3c25ea6f

Еще никто не оставлял запись к записи скачать торрент Michael Weiss Quintet - Presenting Michael Weiss - 1986, FLAC . Будь первым!

!Обратная связь