Скачать через торрент музыку Coleman Hawkins - Coleman Hawkins and Confreres - 1988, FLAC бесплатно без регистрации torrent

Если у вас наблюдаются проблемы со скриншотами, переходом по ссылками, скачиванием торрентов - проблемы в блокировщике рекламы AdBlock. #хорошегоДня!


Статистика раздачи
Размер:  272 MB   |    Зарегистрирован:  5 лет 8 месяцев   |    .torrent скачан:  19 раз   |   
Раздают:  1  
   
Загрузка...
 
Автор Сообщение

Umakiro

avatar Umakiro


Coleman Hawkins - Coleman Hawkins and Confreres

Жанр: Bop, Mainstream Jazz
Страна-производитель диска: Germany
Год издания диска: 1988
Издатель (лейбл): Verve
Номер по каталогу: 835 255-2
Страна: USA St. Joseph, MO
Аудиокодек: FLAC (*.flac)
Тип рипа: image+.cue
Битрейт аудио: lossless
Продолжительность: 00:46:09
Источник (релизер): janwal46
Наличие сканов в содержимом раздачи: да
01. Maria [06:32]
02. Cocktails for two [02:39]
03. Sunday [05:19]
04. Hanid [04:50]
05. Honey Flower (master) [08:42]
06. Nabob [09:29]
07. Honey Flower (alternate) [08:15]

Recording information: Los Angeles, CA (10/15/1957/02/07/1958); New York, NY (10/15/1957/02/07/1958)
 
Exact Audio Copy V0.99 prebeta 4 from 23. January 2008

EAC extraction logfile from 24. August 2009, 9:02

Coleman Hawkins / Coleman Hawkins And Confrиres

Used drive : Optiarc DVD RW AD-7173A Adapter: 1 ID: 0

Read mode : SecureUtilize accurate stream : YesDefeat audio cache : YesMake use of C2 pointers : No

Read offset correction : 48Overread into Lead-In and Lead-Out : NoFill up missing offset samples with silence : YesDelete leading and trailing silent blocks : NoNull samples used in CRC calculations : NoUsed interface : Native Win32 interface for Win NT & 2000

Used output format : Internal WAV RoutinesSample format : 44.100 Hz; 16 Bit; Stereo

TOC of the extracted CD

Track | Start | Length | Start sector | End sector --------------------------------------------------------- 1 | 0:00.33 | 6:35.25 | 33 | 29682 2 | 6:35.58 | 2:42.62 | 29683 | 41894 3 | 9:18.45 | 5:23.00 | 41895 | 66119 4 | 14:41.45 | 4:54.00 | 66120 | 88169 5 | 19:35.45 | 8:44.63 | 88170 | 127532 6 | 28:20.33 | 9:33.25 | 127533 | 170532 7 | 37:53.58 | 8:15.50 | 170533 | 207707

Range status and errors

Selected range

Filename G:\AVAXHOME\Coleman Hawkins - Coleman Hawkins And Confrиres (1961)\Coleman Hawkins - Coleman Hawkins And Confrиres.wav

Peak level 85.7 % Range quality 100.0 % Copy CRC BC9066AE Copy OK

No errors occurred

AccurateRip summary

Track 1 accurately ripped (confidence 2) [1940707A]Track 2 accurately ripped (confidence 2) [55770D9E]Track 3 accurately ripped (confidence 2) [D733C0F6]Track 4 accurately ripped (confidence 2) [422BC5A3]Track 5 accurately ripped (confidence 2) [841F595D]Track 6 accurately ripped (confidence 2) [099688F4]Track 7 accurately ripped (confidence 2) [E48A5FEC]

All tracks accurately ripped

End of status report
 
REM GENRE JazzREM DATE 1961REM DISCID 5D0AD107REM COMMENT "ExactAudioCopy v0.99pb4"PERFORMER "Coleman Hawkins"TITLE "Coleman Hawkins And Confreres"FILE "Coleman Hawkins - Coleman Hawkins And Confreres.wv" WAVE TRACK 01 AUDIO TITLE "Maria" PERFORMER "Coleman Hawkins" INDEX 00 00:00:00 INDEX 01 00:00:33 TRACK 02 AUDIO TITLE "Cocktails for two" PERFORMER "Coleman Hawkins" INDEX 00 06:32:45 INDEX 01 06:35:58 TRACK 03 AUDIO TITLE "Sunday" PERFORMER "Coleman Hawkins" INDEX 00 09:15:20 INDEX 01 09:18:45 TRACK 04 AUDIO TITLE "Hanid" PERFORMER "Coleman Hawkins" INDEX 00 14:38:08 INDEX 01 14:41:45 TRACK 05 AUDIO TITLE "Honey Flower (master)" PERFORMER "Coleman Hawkins" INDEX 00 19:32:20 INDEX 01 19:35:45 TRACK 06 AUDIO TITLE "Nabob" PERFORMER "Coleman Hawkins" INDEX 00 28:18:08 INDEX 01 28:20:33 TRACK 07 AUDIO TITLE "Honey Flower (alternate)" PERFORMER "Coleman Hawkins" INDEX 00 37:50:20 INDEX 01 37:53:58
Coleman Hawkins (tenor saxophone)
Herb Ellis (guitar)
Ben Webster (tenor saxophone)
Roy Eldridge (trumpet)
Hank Jones , Oscar Peterson (piano)
Mickey Sheen, Alvin Stoller (drums)


Трекер:  [ 29-Янв-2012 14:39 ]

  

Скачать .torrent

Размер .torrent файла 11 KB


Размер: 272 MB
Хэш (hash) релиза: a23aed9630eb20ffeea115cd6ac935eae66b45f9

Еще никто не оставлял запись к записи скачать торрент Coleman Hawkins - Coleman Hawkins and Confreres - 1988, FLAC . Будь первым!

!Обратная связь