Скачать через торрент музыку Ralph Lalama & Manhattan All Stars - Feelin and Dealin - 1990, FLAC бесплатно без регистрации torrent

Если у вас наблюдаются проблемы со скриншотами, переходом по ссылками, скачиванием торрентов - проблемы в блокировщике рекламы AdBlock. #хорошегоДня!


Статистика раздачи
Размер:  455 MB   |    Зарегистрирован:  5 лет 8 месяцев   |    .torrent скачан:  29 раз   |   
Раздают:  1  
   
Загрузка...
 
Автор Сообщение

Umakiro

avatar Umakiro


Ralph Lalama & Manhattan All Stars - Feelin' and Dealin'

Жанр: Hard Bop
Страна-производитель диска: Holland
Год издания диска: 1990
Издатель (лейбл): Criss Cross
Номер по каталогу: 1046 CD
Страна: US Pittsburgh, PA
Аудиокодек: FLAC (*.flac)
Тип рипа: image+.cue
Битрейт аудио: lossless
Продолжительность: 01:08:19
Источник (релизер): janwal46
Наличие сканов в содержимом раздачи: да
01. So Nice [10:09]
02. Third Time Around [06:26]
03. Evol Deklaw Ni [11:28]
04. Short Story [09:03]
05. Theme for Mel [09:46]
06. Microwave Blues [07:20]
07. Paradox [07:35]
08. Crazeology [06:31]

Recorded November 23, 1990 in New York City, NY, USA by Max Bolleman
 
Exact Audio Copy V0.99 prebeta 5 from 4. May 2009

EAC extraction logfile from 29. August 2009, 20:16

Ralph Lalama / Feelin' And Dealin'

Used drive : _NEC DVD_RW ND-3520A Adapter: 1 ID: 1

Read mode : SecureUtilize accurate stream : YesDefeat audio cache : YesMake use of C2 pointers : No

Read offset correction : 48Overread into Lead-In and Lead-Out : NoFill up missing offset samples with silence : YesDelete leading and trailing silent blocks : NoNull samples used in CRC calculations : NoUsed interface : Native Win32 interface for Win NT & 2000

Used output format : Internal WAV RoutinesSample format : 44.100 Hz; 16 Bit; Stereo

TOC of the extracted CD

Track | Start | Length | Start sector | End sector --------------------------------------------------------- 1 | 0:00.00 | 10:12.35 | 0 | 45934 2 | 10:12.35 | 6:26.67 | 45935 | 74951 3 | 16:39.27 | 11:28.08 | 74952 | 126559 4 | 28:07.35 | 9:03.10 | 126560 | 167294 5 | 37:10.45 | 9:45.57 | 167295 | 211226 6 | 46:56.27 | 7:19.25 | 211227 | 244176 7 | 54:15.52 | 7:35.73 | 244177 | 278374 8 | 61:51.50 | 6:27.00 | 278375 | 307399

Range status and errors

Selected range

Filename G:\AVAXHOME\Ralph Lalama - Feelin' And Dealin' (1990)\Ralph Lalama - Feelin' And Dealin'.wav

Peak level 99.9 % Range quality 99.9 % Copy CRC 46F8408B Copy OK

No errors occurred

AccurateRip summary

Track 1 not present in databaseTrack 2 not present in databaseTrack 3 not present in databaseTrack 4 not present in databaseTrack 5 not present in databaseTrack 6 not present in databaseTrack 7 not present in databaseTrack 8 not present in database

None of the tracks are present in the AccurateRip database

End of status report
 
REM GENRE JazzREM DATE 1990REM DISCID 62100208REM COMMENT "ExactAudioCopy v0.99pb5"PERFORMER "Ralph Lalama"TITLE "Feelin' And Dealin'"FILE "Ralph Lalama - Feelin' And Dealin'.wav" WAVE TRACK 01 AUDIO TITLE "So Nice" PERFORMER "Ralph Lalama" INDEX 01 00:00:00 TRACK 02 AUDIO TITLE "Third Time Around" PERFORMER "Ralph Lalama" INDEX 00 10:09:57 INDEX 01 10:12:35 TRACK 03 AUDIO TITLE "Evol Deklaw Ni" PERFORMER "Ralph Lalama" INDEX 00 16:35:12 INDEX 01 16:39:27 TRACK 04 AUDIO TITLE "Short Story" PERFORMER "Ralph Lalama" INDEX 00 28:03:50 INDEX 01 28:07:35 TRACK 05 AUDIO TITLE "Theme for Mel" PERFORMER "Ralph Lalama" INDEX 00 37:06:70 INDEX 01 37:10:45 TRACK 06 AUDIO TITLE "Microwave Blues" PERFORMER "Ralph Lalama" INDEX 00 46:52:35 INDEX 01 46:56:27 TRACK 07 AUDIO TITLE "Paradox" PERFORMER "Ralph Lalama" INDEX 00 54:12:00 INDEX 01 54:15:52 TRACK 08 AUDIO TITLE "Crazeology" PERFORMER "Ralph Lalama" INDEX 00 61:47:67 INDEX 01 61:51:50
Ralph Lalama – Tenor Saxophone
Tom Harrell – Trumpet & Flügelhorn
Barry Harris – Piano
Peter Washington - Bass
Kenny Washington – Drums


Трекер:  [ 29-Янв-2012 14:38 ]

  

Скачать .torrent

Размер .torrent файла 19 KB


Размер: 455 MB
Хэш (hash) релиза: 654d0a9660a0ab5f036067c9825bee00faf95768

Еще никто не оставлял запись к записи скачать торрент Ralph Lalama & Manhattan All Stars - Feelin and Dealin - 1990, FLAC . Будь первым!

!Обратная связь