Скачать через торрент музыку The Joe Thomas Group - Comin Home - 2000, FLAC бесплатно без регистрации torrent

Если у вас наблюдаются проблемы со скриншотами, переходом по ссылками, скачиванием торрентов - проблемы в блокировщике рекламы AdBlock. #хорошегоДня!


Статистика раздачи
Размер:  229 MB   |    Зарегистрирован:  5 лет 8 месяцев   |    .torrent скачан:  34 раза   |   
Раздают:  1  
   
Загрузка...
 
Автор Сообщение

Umakiro

avatar Umakiro


The Joe Thomas Group - Comin' Home

Жанр: Funk, Soul
Страна-производитель диска: Italy
Год издания диска: 2000
Издатель (лейбл): Vintage Classic Series
Номер по каталогу: VCS 011
Страна: USA
Аудиокодек: FLAC (*.flac)
Тип рипа: tracks+.cue
Битрейт аудио: lossless
Продолжительность: 00:39:21
Источник (релизер): сеть
Наличие сканов в содержимом раздачи: да
01. Monique [04:01]
02. Comin' Home Baby [06:05]
03. Illya Darling [03:44]
04. Call Me [03:21]
05. Isn't It Romantic [03:30]
06. More [04:28]
07. Big Heart Giant Soul [03:13]
08. You Can Bet Your Sweet Bippy [07:26]
09. Soul Bossa Nova [03:29]

Originally released in 1968 on Cobblestone CST-7001
 
Exact Audio Copy V1.0 beta 1 from 15. November 2010

EAC extraction logfile from 20. January 2012, 20:32

Joe Thomas / Comin' Home

Used drive : TSSTcorpCDDVDW SH-S203N Adapter: 0 ID: 2

Read mode : SecureUtilize accurate stream : YesDefeat audio cache : YesMake use of C2 pointers : No

Read offset correction : 6Overread into Lead-In and Lead-Out : NoFill up missing offset samples with silence : YesDelete leading and trailing silent blocks : NoNull samples used in CRC calculations : YesUsed interface : Installed external ASPI interfaceGap handling : Appended to previous track

Used output format : User Defined EncoderSelected bitrate : 768 kBit/sQuality : HighAdd ID3 tag : NoCommand line compressor : C:\Program Files\Exact Audio Copy-NEW\Flac\flac.exeAdditional command line options : -8 -V -T "ARTIST=%a" -T "TITLE=%t" -T "ALBUM=%g" -T "DATE=%y" -T "TRACKNUMBER=%n" -T "TOTALTRACKS=%x" -T "GENRE=%m" -T "ALBUMARTIST=%v" -T "ALBUM ARTIST=%v" -T "COMMENT=EAC V1.01b1, Secure Mode, Test & Copy, AccurateRip, FL

TOC of the extracted CD

Track | Start | Length | Start sector | End sector --------------------------------------------------------- 1 | 0:00.00 | 4:03.54 | 0 | 18278 2 | 4:03.54 | 6:07.40 | 18279 | 45843 3 | 10:11.19 | 3:46.24 | 45844 | 62817 4 | 13:57.43 | 3:23.39 | 62818 | 78081 5 | 17:21.07 | 3:32.09 | 78082 | 93990 6 | 20:53.16 | 4:30.33 | 93991 | 114273 7 | 25:23.49 | 3:15.42 | 114274 | 128940 8 | 28:39.16 | 7:28.14 | 128941 | 162554 9 | 36:07.30 | 3:29.51 | 162555 | 178280

Track 1

Filename J:\New Rips\Joe Thomas - Comin' Home (1968) [FLAC]\01 - Monique.wav

Pre-gap length 0:00:02.00

Peak level 97.7 % Extraction speed 3.5 X Track quality 99.9 % Test CRC 30524BBF Copy CRC 30524BBF Track not present in AccurateRip database Copy OK

Track 2

Filename J:\New Rips\Joe Thomas - Comin' Home (1968) [FLAC]\02 - Comin' Home Baby.wav

Pre-gap length 0:00:02.00

Peak level 97.7 % Extraction speed 5.2 X Track quality 100.0 % Test CRC 2DDD840C Copy CRC 2DDD840C Track not present in AccurateRip database Copy OK

Track 3

Filename J:\New Rips\Joe Thomas - Comin' Home (1968) [FLAC]\03 - Illya Darling.wav

Pre-gap length 0:00:02.00

Peak level 97.7 % Extraction speed 5.3 X Track quality 100.0 % Test CRC 51444347 Copy CRC 51444347 Track not present in AccurateRip database Copy OK

Track 4

Filename J:\New Rips\Joe Thomas - Comin' Home (1968) [FLAC]\04 - Call Me.wav

Pre-gap length 0:00:02.00

Peak level 97.7 % Extraction speed 4.3 X Track quality 99.9 % Test CRC 78348F69 Copy CRC 78348F69 Track not present in AccurateRip database Copy OK

Track 5

Filename J:\New Rips\Joe Thomas - Comin' Home (1968) [FLAC]\05 - Isn't It Romantic.wav

Pre-gap length 0:00:02.00

Peak level 97.7 % Extraction speed 5.9 X Track quality 100.0 % Test CRC 5E356555 Copy CRC 5E356555 Track not present in AccurateRip database Copy OK

Track 6

Filename J:\New Rips\Joe Thomas - Comin' Home (1968) [FLAC]\06 - More.wav

Pre-gap length 0:00:02.00

Peak level 97.7 % Extraction speed 6.5 X Track quality 100.0 % Test CRC DA0B1A41 Copy CRC DA0B1A41 Track not present in AccurateRip database Copy OK

Track 7

Filename J:\New Rips\Joe Thomas - Comin' Home (1968) [FLAC]\07 - Big Heart Giant Soul.wav

Pre-gap length 0:00:02.00

Peak level 97.7 % Extraction speed 6.5 X Track quality 100.0 % Test CRC 17DFAD2B Copy CRC 17DFAD2B Track not present in AccurateRip database Copy OK

Track 8

Filename J:\New Rips\Joe Thomas - Comin' Home (1968) [FLAC]\08 - You Can Bet Your Sweet Bippy.wav

Pre-gap length 0:00:02.00

Peak level 97.7 % Extraction speed 7.6 X Track quality 100.0 % Test CRC C26F21BA Copy CRC C26F21BA Track not present in AccurateRip database Copy OK

Track 9

Filename J:\New Rips\Joe Thomas - Comin' Home (1968) [FLAC]\09 - Soul Bossa Nova.wav

Pre-gap length 0:00:02.00

Peak level 97.7 % Extraction speed 7.3 X Track quality 100.0 % Test CRC B6286D11 Copy CRC B6286D11 Track not present in AccurateRip database Copy OK

None of the tracks are present in the AccurateRip database

No errors occurred

End of status report

==== Log checksum 99AD9AD8FD8B7CAC082AC9B115A3FCE5F20E5DBC54D4236DF7DC7009B4111762 ====
 
REM GENRE "Jazz (Soul)"REM DATE 1968REM DISCID 6A094909REM COMMENT "ExactAudioCopy v1.0b1"PERFORMER "Joe Thomas"TITLE "Comin' Home"FILE "01 - Monique.wav" WAVE TRACK 01 AUDIO TITLE "Monique" PERFORMER "Joe Thomas" INDEX 01 00:00:00 TRACK 02 AUDIO TITLE "Comin' Home Baby" PERFORMER "Joe Thomas" INDEX 00 04:01:54FILE "02 - Comin' Home Baby.wav" WAVE INDEX 01 00:00:00 TRACK 03 AUDIO TITLE "Illya Darling" PERFORMER "Joe Thomas" INDEX 00 06:05:40FILE "03 - Illya Darling.wav" WAVE INDEX 01 00:00:00 TRACK 04 AUDIO TITLE "Call Me" PERFORMER "Joe Thomas" INDEX 00 03:44:24FILE "04 - Call Me.wav" WAVE INDEX 01 00:00:00 TRACK 05 AUDIO TITLE "Isn't It Romantic" PERFORMER "Joe Thomas" INDEX 00 03:21:39FILE "05 - Isn't It Romantic.wav" WAVE INDEX 01 00:00:00 TRACK 06 AUDIO TITLE "More" PERFORMER "Joe Thomas" INDEX 00 03:30:09FILE "06 - More.wav" WAVE INDEX 01 00:00:00 TRACK 07 AUDIO TITLE "Big Heart Giant Soul" PERFORMER "Joe Thomas" INDEX 00 04:28:33FILE "07 - Big Heart Giant Soul.wav" WAVE INDEX 01 00:00:00 TRACK 08 AUDIO TITLE "You Can Bet Your Sweet Bippy" PERFORMER "Joe Thomas" INDEX 00 03:13:42FILE "08 - You Can Bet Your Sweet Bippy.wav" WAVE INDEX 01 00:00:00 TRACK 09 AUDIO TITLE "Soul Bossa Nova" PERFORMER "Joe Thomas" INDEX 00 07:26:14FILE "09 - Soul Bossa Nova.wav" WAVE INDEX 01 00:00:00
Flute - Joe Thomas
Saxophone - Robby Porter
Organ - Clifton "Jiggs" Chase
Guitar - Jimmy Wilkinson
Guitar - Jimmy Ponder
Drums - Kenny Polland


Трекер:  [ 29-Янв-2012 14:38 ]

  

Скачать .torrent

Размер .torrent файла 19 KB


Размер: 229 MB
Хэш (hash) релиза: 9a2e0f4e995848949594cbdb3eff422d52bc9804

Еще никто не оставлял запись к записи скачать торрент The Joe Thomas Group - Comin Home - 2000, FLAC . Будь первым!

!Обратная связь