Скачать через торрент музыку Brad Leali - Claus Raible Quartet - D.A.s Time - 2007, FLAC бесплатно без регистрации torrent

Если у вас наблюдаются проблемы со скриншотами, переходом по ссылками, скачиванием торрентов - проблемы в блокировщике рекламы AdBlock. #хорошегоДня!


Статистика раздачи
Размер:  464 MB   |    Зарегистрирован:  5 лет 8 месяцев   |    .torrent скачан:  21 раз   |   
Раздают:  1  
   
Загрузка...
 
Автор Сообщение

Umakiro

avatar Umakiro


Brad Leali - Claus Raible Quartet - D.A.'s Time

Жанр: Post-Bop, Bebop
Год издания диска: 2007
Издатель (лейбл): TCB Records
Номер по каталогу: TCB 28912
Страна: US Denver, Colorado
Аудиокодек: FLAC (*.flac)
Тип рипа: image+.cue
Битрейт аудио: lossless
Продолжительность: 01:13:43
Источник (релизер): karelin
Наличие сканов в содержимом раздачи: нет
01. Currawong [06:41]
02. Puddin' Time [10:33]
03. I guess I hang my tears out to dry [06:09]
04. Catina [06:25]
05. Manteca [07:57]
06. Little Freddie steps [07:20]
07. D.A.'s Time [08:31]
08. I'll keep loving you [06:48]
09. Not yet [06:32]
10. Blues for Lizzie [06:42]
 
Exact Audio Copy V1.0 beta 1 from 15. November 2010

EAC extraction logfile from 22. January 2012, 15:23

Brad Leali - Claus Raible Quartet / D.A.'s Time

Used drive : ATAPI DVD A DH20A4P Adapter: 1 ID: 0

Read mode : SecureUtilize accurate stream : YesDefeat audio cache : YesMake use of C2 pointers : No

Read offset correction : 6Overread into Lead-In and Lead-Out : NoFill up missing offset samples with silence : YesDelete leading and trailing silent blocks : NoNull samples used in CRC calculations : YesUsed interface : Installed external ASPI interface

Used output format : User Defined EncoderSelected bitrate : 1024 kBit/sQuality : HighAdd ID3 tag : NoCommand line compressor : C:\Program Files\Exact Audio Copy\Flac\flac.exeAdditional command line options : -5 -V -T "ARTIST=%a" -T "TITLE=%t" -T "ALBUM=%g" -T "DATE=%y" -T "TRACKNUMBER=%n" -T "GENRE=%m" -T "COMMENT=[oStereo.ru]" %s

TOC of the extracted CD

Track | Start | Length | Start sector | End sector --------------------------------------------------------- 1 | 0:00.00 | 6:43.57 | 0 | 30281 2 | 6:43.57 | 10:35.44 | 30282 | 77950 3 | 17:19.26 | 6:11.37 | 77951 | 105812 4 | 23:30.63 | 6:27.38 | 105813 | 134875 5 | 29:58.26 | 7:59.70 | 134876 | 170870 6 | 37:58.21 | 7:22.24 | 170871 | 204044 7 | 45:20.45 | 8:33.12 | 204045 | 242531 8 | 53:53.57 | 6:50.22 | 242532 | 273303 9 | 60:44.04 | 6:34.74 | 273304 | 302927 10 | 67:19.03 | 6:42.53 | 302928 | 333130

Range status and errors

Selected range

Filename D:\Brad Leali - Claus Raible Quartet - D.A.'s Time - 2007 - TCB.wav

Peak level 94.4 % Extraction speed 0.3 X Range quality 100.0 % Test CRC F1DBE7D4 Copy CRC F1DBE7D4 Copy OK

No errors occurred

AccurateRip summary

Track 1 not present in databaseTrack 2 not present in databaseTrack 3 not present in databaseTrack 4 not present in databaseTrack 5 not present in databaseTrack 6 not present in databaseTrack 7 not present in databaseTrack 8 not present in databaseTrack 9 not present in databaseTrack 10 not present in database

None of the tracks are present in the AccurateRip database

End of status report

==== Log checksum 5B9F6A70B413D0F0EFFBFE58C1649D02EC0A3C14536DE9D9AA8CFF16B64F8172 ====
 
REM GENRE JazzREM DATE 2007REM DISCID 6411590AREM COMMENT "ExactAudioCopy v1.0b1"PERFORMER "Brad Leali - Claus Raible Quartet"TITLE "D.A.'s Time"FILE "Brad Leali - Claus Raible Quartet - D.A.'s Time - 2007 - TCB.flac" WAVE TRACK 01 AUDIO TITLE "Currawong" PERFORMER "Brad Leali - Claus Raible Quartet" INDEX 01 00:00:00 TRACK 02 AUDIO TITLE "Puddin' Time" PERFORMER "Brad Leali - Claus Raible Quartet" INDEX 00 06:41:57 INDEX 01 06:43:57 TRACK 03 AUDIO TITLE "I guess I hang my tears out to dry" PERFORMER "Brad Leali - Claus Raible Quartet" INDEX 00 17:17:26 INDEX 01 17:19:26 TRACK 04 AUDIO TITLE "Catina" PERFORMER "Brad Leali - Claus Raible Quartet" INDEX 00 23:28:63 INDEX 01 23:30:63 TRACK 05 AUDIO TITLE "Manteca" PERFORMER "Brad Leali - Claus Raible Quartet" INDEX 00 29:56:26 INDEX 01 29:58:26 TRACK 06 AUDIO TITLE "Little Freddie steps" PERFORMER "Brad Leali - Claus Raible Quartet" INDEX 00 37:56:21 INDEX 01 37:58:21 TRACK 07 AUDIO TITLE "D.A.'s Time" PERFORMER "Brad Leali - Claus Raible Quartet" INDEX 00 45:18:45 INDEX 01 45:20:45 TRACK 08 AUDIO TITLE "I'll keep loving you" PERFORMER "Brad Leali - Claus Raible Quartet" INDEX 00 53:51:57 INDEX 01 53:53:57 TRACK 09 AUDIO TITLE "Not yet" PERFORMER "Brad Leali - Claus Raible Quartet" INDEX 00 60:42:04 INDEX 01 60:44:04 TRACK 10 AUDIO TITLE "Blues for Lizzie" PERFORMER "Brad Leali - Claus Raible Quartet" INDEX 00 67:17:03 INDEX 01 67:19:03
Brad Leali (saxophone, alto saxophone)
Claus Raible (piano)
Giorgos Antoniou (bass instrument)
Alvester Garnett (drums)


Трекер:  [ 29-Янв-2012 14:38 ]

  

Скачать .torrent

Размер .torrent файла 19 KB


Размер: 464 MB
Хэш (hash) релиза: a87575bd298ebdbd44056cc74458fbb4e2b03710

Еще никто не оставлял запись к записи скачать торрент Brad Leali - Claus Raible Quartet - D.A.s Time - 2007, FLAC . Будь первым!

!Обратная связь