Скачать через торрент музыку Billie Holiday - Jazz & Blues Collection - 1995, FLAC бесплатно без регистрации torrent

Если у вас наблюдаются проблемы со скриншотами, переходом по ссылками, скачиванием торрентов - проблемы в блокировщике рекламы AdBlock. #хорошегоДня!


Статистика раздачи
Размер:  111 MB   |    Зарегистрирован:  5 лет 8 месяцев   |    .torrent скачан:  33 раза   |   
Раздают:  1  
   
Загрузка...
 
Автор Сообщение

Umakiro

avatar Umakiro


Billie Holiday / Jazz & Blues Collection

Жанр: Vocal Jazz
Страна-производитель диска: France
Год издания диска: 1995
Издатель (лейбл): Editions Atlas
Номер по каталогу: WIS CD 614
Страна: U.S.A
Аудио кодек: FLAC (*.flac)
Тип рипа: tracks+.cue
Битрейт аудио: lossless
Продолжительность: 00:54:18
Источник (релизер): theRadDept
Наличие сканов в содержимом раздачи: да
Треклист:
01 - Your Mother's Son-In-Law [2:46]
02 - These Foolish Things [3:19]
03 - I Cried For You [3:13]
04 - Did I Remember ? [2:53]
05 - No Regrets [2:38]
06 - Billie's Blues [2:40]
07 - Easy To Love [3:13]
08 - This Year's Kisses [3:11]
09 - Why Was I Born ? [2:51]
10 - Who Wants Love ? [2:34]
11 - If Dreams Come True [3:04]
12 - Any Old Time [3:12]
13 - That's All I Ask Of You [2:58]
14 - Strange Fruit [3:17]
15 - Yesterdays [3:23]
16 - Fine And Mellow [3:15]
17 - Them There Eyes [2:51]
18 - Body And Soul [3:00]
 
Exact Audio Copy V0.99 prebeta 4 from 23. January 2008

EAC extraction logfile from 29. September 2008, 19:13

Billie Holiday / Jazz & Blues Collection

Used drive : HL-DT-STDVDRAM GH20NS10 Adapter: 3 ID: 0

Read mode : SecureUtilize accurate stream : YesDefeat audio cache : YesMake use of C2 pointers : No

Read offset correction : 667Overread into Lead-In and Lead-Out : NoFill up missing offset samples with silence : YesDelete leading and trailing silent blocks : NoNull samples used in CRC calculations : YesUsed interface : Native Win32 interface for Win NT & 2000Gap handling : Appended to previous track

Used output format : User Defined EncoderSelected bitrate : 768 kBit/sQuality : HighAdd ID3 tag : NoCommand line compressor : C:\Program Files\FLAC\flac.exeAdditional command line options : -V -8 -T "artist=%a" -T "title=%t" -T "album=%g" -T "date=%y" -T "tracknumber=%n" %s

TOC of the extracted CD

Track | Start | Length | Start sector | End sector --------------------------------------------------------- 1 | 0:00.32 | 2:46.08 | 32 | 12489 2 | 2:46.40 | 3:19.27 | 12490 | 27441 3 | 6:05.67 | 3:13.33 | 27442 | 41949 4 | 9:19.25 | 2:52.47 | 41950 | 54896 5 | 12:11.72 | 2:38.05 | 54897 | 66751 6 | 14:50.02 | 2:39.63 | 66752 | 78739 7 | 17:29.65 | 3:12.40 | 78740 | 93179 8 | 20:42.30 | 3:10.62 | 93180 | 107491 9 | 23:53.17 | 2:50.50 | 107492 | 120291 10 | 26:43.67 | 2:33.63 | 120292 | 131829 11 | 29:17.55 | 3:04.10 | 131830 | 145639 12 | 32:21.65 | 3:12.27 | 145640 | 160066 13 | 35:34.17 | 2:58.10 | 160067 | 173426 14 | 38:32.27 | 3:16.58 | 173427 | 188184 15 | 41:49.10 | 3:23.17 | 188185 | 203426 16 | 45:12.27 | 3:14.58 | 203427 | 218034 17 | 48:27.10 | 2:50.42 | 218035 | 230826 18 | 51:17.52 | 3:00.13 | 230827 | 244339

Track 1

Filename C:\Hi there RIAA, What's up IFPI\Billie Holiday - Jazz & Blues Collection\01 - Your Mother's Son-In-Law.wav

Pre-gap length 0:00:02.42

Peak level 85.4 % Track quality 100.0 % Test CRC F70EDB2E Copy CRC F70EDB2E Track not present in AccurateRip database Copy OK

Track 2

Filename C:\Hi there RIAA, What's up IFPI\Billie Holiday - Jazz & Blues Collection\02 - These Foolish Things.wav

Pre-gap length 0:00:01.30

Peak level 80.9 % Track quality 100.0 % Test CRC 934E5F11 Copy CRC 934E5F11 Track not present in AccurateRip database Copy OK

Track 3

Filename C:\Hi there RIAA, What's up IFPI\Billie Holiday - Jazz & Blues Collection\03 - I Cried For You.wav

Pre-gap length 0:00:01.36

Peak level 91.0 % Track quality 100.0 % Test CRC F22EDB18 Copy CRC F22EDB18 Track not present in AccurateRip database Copy OK

Track 4

Filename C:\Hi there RIAA, What's up IFPI\Billie Holiday - Jazz & Blues Collection\04 - Did I Remember .wav

Pre-gap length 0:00:01.30

Peak level 75.8 % Track quality 100.0 % Test CRC C3781194 Copy CRC C3781194 Track not present in AccurateRip database Copy OK

Track 5

Filename C:\Hi there RIAA, What's up IFPI\Billie Holiday - Jazz & Blues Collection\05 - No Regrets.wav

Pre-gap length 0:00:01.42

Peak level 78.2 % Track quality 99.9 % Test CRC 78F8BB0D Copy CRC 78F8BB0D Track not present in AccurateRip database Copy OK

Track 6

Filename C:\Hi there RIAA, What's up IFPI\Billie Holiday - Jazz & Blues Collection\06 - Billie's Blues.wav

Pre-gap length 0:00:01.26

Peak level 66.2 % Track quality 100.0 % Test CRC E490AADF Copy CRC E490AADF Track not present in AccurateRip database Copy OK

Track 7

Filename C:\Hi there RIAA, What's up IFPI\Billie Holiday - Jazz & Blues Collection\07 - Easy To Love.wav

Pre-gap length 0:00:01.17

Peak level 66.9 % Track quality 100.0 % Test CRC B6DA9328 Copy CRC B6DA9328 Track not present in AccurateRip database Copy OK

Track 8

Filename C:\Hi there RIAA, What's up IFPI\Billie Holiday - Jazz & Blues Collection\08 - This Year's Kisses.wav

Pre-gap length 0:00:01.70

Peak level 78.3 % Track quality 100.0 % Test CRC 61A63D98 Copy CRC 61A63D98 Track not present in AccurateRip database Copy OK

Track 9

Filename C:\Hi there RIAA, What's up IFPI\Billie Holiday - Jazz & Blues Collection\09 - Why Was I Born .wav

Pre-gap length 0:00:01.29

Peak level 76.9 % Track quality 99.9 % Test CRC 0E5FF0F2 Copy CRC 0E5FF0F2 Track not present in AccurateRip database Copy OK

Track 10

Filename C:\Hi there RIAA, What's up IFPI\Billie Holiday - Jazz & Blues Collection\10 - Who Wants Love .wav

Pre-gap length 0:00:01.16

Peak level 88.9 % Track quality 100.0 % Test CRC E163E4BD Copy CRC E163E4BD Track not present in AccurateRip database Copy OK

Track 11

Filename C:\Hi there RIAA, What's up IFPI\Billie Holiday - Jazz & Blues Collection\11 - If Dreams Come True.wav

Pre-gap length 0:00:01.33

Peak level 73.1 % Track quality 100.0 % Test CRC 03103D8E Copy CRC 03103D8E Track not present in AccurateRip database Copy OK

Track 12

Filename C:\Hi there RIAA, What's up IFPI\Billie Holiday - Jazz & Blues Collection\12 - Any Old Time.wav

Pre-gap length 0:00:01.13

Peak level 54.2 % Track quality 100.0 % Test CRC 2006C2CD Copy CRC 2006C2CD Track not present in AccurateRip database Copy OK

Track 13

Filename C:\Hi there RIAA, What's up IFPI\Billie Holiday - Jazz & Blues Collection\13 - That's All I Ask Of You.wav

Pre-gap length 0:00:01.36

Peak level 67.4 % Track quality 100.0 % Test CRC B4F29785 Copy CRC B4F29785 Track not present in AccurateRip database Copy OK

Track 14

Filename C:\Hi there RIAA, What's up IFPI\Billie Holiday - Jazz & Blues Collection\14 - Strange Fruit.wav

Pre-gap length 0:00:01.66

Peak level 94.5 % Track quality 100.0 % Test CRC 0BEF1998 Copy CRC 0BEF1998 Track not present in AccurateRip database Copy OK

Track 15

Filename C:\Hi there RIAA, What's up IFPI\Billie Holiday - Jazz & Blues Collection\15 - Yesterdays.wav

Pre-gap length 0:00:01.33

Peak level 92.4 % Track quality 99.9 % Test CRC 8A9236A0 Copy CRC 8A9236A0 Track not present in AccurateRip database Copy OK

Track 16

Filename C:\Hi there RIAA, What's up IFPI\Billie Holiday - Jazz & Blues Collection\16 - Fine And Mellow.wav

Pre-gap length 0:00:01.36

Peak level 86.5 % Track quality 100.0 % Test CRC 640D8CD3 Copy CRC 640D8CD3 Track not present in AccurateRip database Copy OK

Track 17

Filename C:\Hi there RIAA, What's up IFPI\Billie Holiday - Jazz & Blues Collection\17 - Them There Eyes.wav

Pre-gap length 0:00:01.00

Peak level 85.4 % Track quality 100.0 % Test CRC 5DDAD7A0 Copy CRC 5DDAD7A0 Track not present in AccurateRip database Copy OK

Track 18

Filename C:\Hi there RIAA, What's up IFPI\Billie Holiday - Jazz & Blues Collection\18 - Body And Soul.wav

Pre-gap length 0:00:01.29

Peak level 79.6 % Track quality 100.0 % Test CRC 335F8478 Copy CRC 335F8478 Track not present in AccurateRip database Copy OK

None of the tracks are present in the AccurateRip database

No errors occurred

End of status report
 
REM DATE 1995REM DISCID F30CB912REM COMMENT "ExactAudioCopy v0.99pb4"PERFORMER "Billie Holiday"TITLE "Jazz & Blues Collection"FILE "01 - Your Mother's Son-In-Law.flac" WAVE TRACK 01 AUDIO TITLE "Your Mother's Son-In-Law" PERFORMER "Billie Holiday" PREGAP 00:00:32 INDEX 01 00:00:00 TRACK 02 AUDIO TITLE "These Foolish Things" PERFORMER "Billie Holiday" INDEX 00 02:44:60FILE "02 - These Foolish Things.flac" WAVE INDEX 01 00:00:00 TRACK 03 AUDIO TITLE "I Cried For You" PERFORMER "Billie Holiday" INDEX 00 03:18:00FILE "03 - I Cried For You.flac" WAVE INDEX 01 00:00:00 TRACK 04 AUDIO TITLE "Did I Remember ?" PERFORMER "Billie Holiday" INDEX 00 03:12:10FILE "04 - Did I Remember.flac" WAVE INDEX 01 00:00:00 TRACK 05 AUDIO TITLE "No Regrets" PERFORMER "Billie Holiday" INDEX 00 02:51:15FILE "05 - No Regrets.flac" WAVE INDEX 01 00:00:00 TRACK 06 AUDIO TITLE "Billie's Blues" PERFORMER "Billie Holiday" INDEX 00 02:36:60FILE "06 - Billie's Blues.flac" WAVE INDEX 01 00:00:00 TRACK 07 AUDIO TITLE "Easy To Love" PERFORMER "Billie Holiday" INDEX 00 02:38:50FILE "07 - Easy To Love.flac" WAVE INDEX 01 00:00:00 TRACK 08 AUDIO TITLE "This Year's Kisses" PERFORMER "Billie Holiday" INDEX 00 03:10:62FILE "08 - This Year's Kisses.flac" WAVE INDEX 01 00:00:00 TRACK 09 AUDIO TITLE "Why Was I Born ?" PERFORMER "Billie Holiday" INDEX 00 03:09:40FILE "09 - Why Was I Born.flac" WAVE INDEX 01 00:00:00 TRACK 10 AUDIO TITLE "Who Wants Love ?" PERFORMER "Billie Holiday" INDEX 00 02:49:38FILE "10 - Who Wants Love.flac" WAVE INDEX 01 00:00:00 TRACK 11 AUDIO TITLE "If Dreams Come True" PERFORMER "Billie Holiday" INDEX 00 02:32:38FILE "11 - If Dreams Come True.flac" WAVE INDEX 01 00:00:00 TRACK 12 AUDIO TITLE "Any Old Time" PERFORMER "Billie Holiday" INDEX 00 03:03:00FILE "12 - Any Old Time.flac" WAVE INDEX 01 00:00:00 TRACK 13 AUDIO TITLE "That's All I Ask Of You" PERFORMER "Billie Holiday" INDEX 00 03:11:00FILE "13 - That's All I Ask Of You.flac" WAVE INDEX 01 00:00:00 TRACK 14 AUDIO TITLE "Strange Fruit" PERFORMER "Billie Holiday" INDEX 00 02:56:35FILE "14 - Strange Fruit.flac" WAVE INDEX 01 00:00:00 TRACK 15 AUDIO TITLE "Yesterdays" PERFORMER "Billie Holiday" INDEX 00 03:15:33FILE "15 - Yesterdays.flac" WAVE INDEX 01 00:00:00 TRACK 16 AUDIO TITLE "Fine And Mellow" PERFORMER "Billie Holiday" INDEX 00 03:21:65FILE "16 - Fine And Mellow.flac" WAVE INDEX 01 00:00:00 TRACK 17 AUDIO TITLE "Them There Eyes" PERFORMER "Billie Holiday" INDEX 00 03:13:58FILE "17 - Them There Eyes.flac" WAVE INDEX 01 00:00:00 TRACK 18 AUDIO TITLE "Body And Soul" PERFORMER "Billie Holiday" INDEX 00 02:49:20FILE "18 - Body And Soul.flac" WAVE INDEX 01 00:00:00


Трекер:  [ 29-Янв-2012 14:37 ]

  

Скачать .torrent

Размер .torrent файла 19 KB


Размер: 111 MB
Хэш (hash) релиза: f5d5565202b859801fd734e52703f41caee7945e

Еще никто не оставлял запись к записи скачать торрент Billie Holiday - Jazz & Blues Collection - 1995, FLAC . Будь первым!

!Обратная связь