Скачать через торрент музыку Susan Wong - Close to You - 2004, FLAC бесплатно без регистрации torrent

Если у вас наблюдаются проблемы со скриншотами, переходом по ссылками, скачиванием торрентов - проблемы в блокировщике рекламы AdBlock. #хорошегоДня!


Статистика раздачи
Размер:  223 MB   |    Зарегистрирован:  5 лет 8 месяцев   |    .torrent скачан:  44 раза   |   
Раздают:  1  
   
Загрузка...
 
Автор Сообщение

Umakiro

avatar Umakiro


Susan Wong / Close to You

Жанр: Vocal Jazz, Jazz-Pop
Год издания диска: 2004
Издатель (лейбл): evosound
Страна: Hong Kong and immigrated to Sydney, Australia
Аудиокодек: FLAC (*.flac)
Тип рипа: tracks+.cue
Битрейт аудио: lossless
Продолжительность: 00:42:35
Источник (релизер): Blues33
Наличие сканов в содержимом раздачи: да
Треклист:
01. Killing Me Softly [04:15]
02. I'm Easy [03:33]
03. Fly Me to the Moon [04:00]
04. Close to You [03:19]
05. Love Will Keep Us Alive [04:56]
06. Stay Awhile [03:38]
07. Do You Wanna Dance [03:37]
08. This Masquerade [04:49]
09. Do That to Me One More Time [04:02]
10. Desperado [03:28]
11. I Just Fall in Love Again [02:55]
 
Exact Audio Copy V0.99 prebeta 5 from 4. May 2009

EAC extraction logfile from 10. March 2011, 15:33

Susan Wong / Close to You

Used drive : PLEXTOR CD-R PREMIUM2 Adapter: 4 ID: 1

Read mode : SecureUtilize accurate stream : YesDefeat audio cache : YesMake use of C2 pointers : No

Read offset correction : 30Overread into Lead-In and Lead-Out : YesFill up missing offset samples with silence : YesDelete leading and trailing silent blocks : NoNull samples used in CRC calculations : YesUsed interface : Native Win32 interface for Win NT & 2000Gap handling : Appended to previous track

Used output format : User Defined EncoderSelected bitrate : 768 kBit/sQuality : HighAdd ID3 tag : NoCommand line compressor : C:\Exact Audio Copy\Flac\flac.exeAdditional command line options : -8 -V -T "ARTIST=%a" -T "TITLE=%t" -T "ALBUM=%g" -T "DATE=%y" -T "TRACKNUMBER=%n" -T "TOTALTRACKS=%x" -T "GENRE=%m" -T "ALBUMARTIST=%v" -T "ALBUM ARTIST=%v" -T "COMMENT=EAC Secure Mode, Test & Copy, AccurateRip, FLAC -8" %s

TOC of the extracted CD

Track | Start | Length | Start sector | End sector --------------------------------------------------------- 1 | 0:00.01 | 4:15.39 | 1 | 19164 2 | 4:15.40 | 3:33.56 | 19165 | 35195 3 | 7:49.21 | 4:00.11 | 35196 | 53206 4 | 11:49.32 | 3:19.13 | 53207 | 68144 5 | 15:08.45 | 4:56.40 | 68145 | 90384 6 | 20:05.10 | 3:38.20 | 90385 | 106754 7 | 23:43.30 | 3:37.32 | 106755 | 123061 8 | 27:20.62 | 4:49.55 | 123062 | 144791 9 | 32:10.42 | 4:02.16 | 144792 | 162957 10 | 36:12.58 | 3:28.07 | 162958 | 178564 11 | 39:40.65 | 2:55.03 | 178565 | 191692

Track 1

Filename E:\losslessworld.info\01 - Killing Me Softly.wav

Pre-gap length 0:00:02.01

Peak level 95.5 % Track quality 100.0 % Test CRC 35B87A7F Copy CRC 35B87A7F Track not present in AccurateRip database Copy OK

Track 2

Filename E:\losslessworld.info\02 - I'm Easy.wav

Peak level 99.5 % Track quality 100.0 % Test CRC 37A66580 Copy CRC 37A66580 Track not present in AccurateRip database Copy OK

Track 3

Filename E:\losslessworld.info\03 - Fly Me to the Moon.wav

Peak level 100.0 % Track quality 100.0 % Test CRC 8DAC6071 Copy CRC 8DAC6071 Track not present in AccurateRip database Copy OK

Track 4

Filename E:\losslessworld.info\04 - Close to You.wav

Peak level 97.2 % Track quality 100.0 % Test CRC E79424D8 Copy CRC E79424D8 Track not present in AccurateRip database Copy OK

Track 5

Filename E:\losslessworld.info\05 - Love Will Keep Us Alive.wav

Peak level 94.8 % Track quality 99.9 % Test CRC 0E4E691A Copy CRC 0E4E691A Track not present in AccurateRip database Copy OK

Track 6

Filename E:\losslessworld.info\06 - Stay Awhile.wav

Peak level 98.4 % Track quality 100.0 % Test CRC E2CEAD29 Copy CRC E2CEAD29 Track not present in AccurateRip database Copy OK

Track 7

Filename E:\losslessworld.info\07 - Do You Wanna Dance.wav

Peak level 95.9 % Track quality 100.0 % Test CRC E0D9A640 Copy CRC E0D9A640 Track not present in AccurateRip database Copy OK

Track 8

Filename E:\losslessworld.info\08 - This Masquerade.wav

Peak level 100.0 % Track quality 100.0 % Test CRC 9D9E71AC Copy CRC 9D9E71AC Track not present in AccurateRip database Copy OK

Track 9

Filename E:\losslessworld.info\09 - Do That to Me One More Time.wav

Peak level 97.8 % Track quality 100.0 % Test CRC F614E24E Copy CRC F614E24E Track not present in AccurateRip database Copy OK

Track 10

Filename E:\losslessworld.info\10 - Desperado.wav

Peak level 96.0 % Track quality 100.0 % Test CRC F49B4AE6 Copy CRC F49B4AE6 Track not present in AccurateRip database Copy OK

Track 11

Filename E:\losslessworld.info\11 - I Just Fall in Love Again.wav

Peak level 94.6 % Track quality 100.0 % Test CRC 6ADF8C36 Copy CRC 6ADF8C36 Track not present in AccurateRip database Copy OK

None of the tracks are present in the AccurateRip database

No errors occurred

End of status report
 
REM GENRE PopREM DATE 2002REM DISCID 7E09FB0BREM COMMENT "ExactAudioCopy v0.99pb5"PERFORMER "Susan Wong"TITLE "Close to You"FILE "01 - Killing Me Softly.wav" WAVE TRACK 01 AUDIO TITLE "Killing Me Softly" PERFORMER "Susan Wong" FLAGS DCP PREGAP 00:00:01 INDEX 01 00:00:00FILE "02 - I'm Easy.wav" WAVE TRACK 02 AUDIO TITLE "I'm Easy" PERFORMER "Susan Wong" FLAGS DCP INDEX 01 00:00:00FILE "03 - Fly Me to the Moon.wav" WAVE TRACK 03 AUDIO TITLE "Fly Me to the Moon" PERFORMER "Susan Wong" FLAGS DCP INDEX 01 00:00:00FILE "04 - Close to You.wav" WAVE TRACK 04 AUDIO TITLE "Close to You" PERFORMER "Susan Wong" FLAGS DCP INDEX 01 00:00:00FILE "05 - Love Will Keep Us Alive.wav" WAVE TRACK 05 AUDIO TITLE "Love Will Keep Us Alive" PERFORMER "Susan Wong" FLAGS DCP INDEX 01 00:00:00FILE "06 - Stay Awhile.wav" WAVE TRACK 06 AUDIO TITLE "Stay Awhile" PERFORMER "Susan Wong" FLAGS DCP INDEX 01 00:00:00FILE "07 - Do You Wanna Dance.wav" WAVE TRACK 07 AUDIO TITLE "Do You Wanna Dance" PERFORMER "Susan Wong" FLAGS DCP INDEX 01 00:00:00FILE "08 - This Masquerade.wav" WAVE TRACK 08 AUDIO TITLE "This Masquerade" PERFORMER "Susan Wong" FLAGS DCP INDEX 01 00:00:00FILE "09 - Do That to Me One More Time.wav" WAVE TRACK 09 AUDIO TITLE "Do That to Me One More Time" PERFORMER "Susan Wong" FLAGS DCP INDEX 01 00:00:00FILE "10 - Desperado.wav" WAVE TRACK 10 AUDIO TITLE "Desperado" PERFORMER "Susan Wong" FLAGS DCP INDEX 01 00:00:00FILE "11 - I Just Fall in Love Again.wav" WAVE TRACK 11 AUDIO TITLE "I Just Fall in Love Again" PERFORMER "Susan Wong" FLAGS DCP INDEX 01 00:00:00
Susan Wong
Wong Wai Ming (violin)
Lo Yan (guitar)
Roberto V. Sampaga (bass)
Ng Kit Chi (electric bass)
Roger Shum (drum)
Ding (percussion)
Dennis Lancion (piano)
Holun Mak (keyboard)
Amorcito C. Tapawan (saxophone)


Трекер:  [ 29-Янв-2012 14:36 ]

  

Скачать .torrent

Размер .torrent файла 18 KB


Размер: 223 MB
Хэш (hash) релиза: 375f200f80af5c0b707536db69cf6097cd4b1894

Еще никто не оставлял запись к записи скачать торрент Susan Wong - Close to You - 2004, FLAC . Будь первым!

!Обратная связь