Скачать через торрент музыку Billie Holiday — From The Original Decca Masters — 1986, FLAC бесплатно без регистрации torrent

Если у вас наблюдаются проблемы со скриншотами, переходом по ссылками, скачиванием торрентов - проблемы в блокировщике рекламы AdBlock. #хорошегоДня!


Статистика раздачи
Размер:  233 MB   |    Зарегистрирован:  5 лет 8 месяцев   |    .torrent скачан:  17 раз   |   
Раздают:  1  
   
Загрузка...
 
Автор Сообщение

Umakiro

avatar Umakiro


Billie Holiday — From The Original Decca Masters

Жанр: Vocal Jazz
Год выпуска диска: 1986
Производитель диска: MCA Records
Аудио кодек: FLAC
Тип рипа: tracks+.cue
Битрейт аудио: lossless
Продолжительность: 47:46

Треклист:
01. Ain't Nobody's Business If I Do (3:24)
02. Baby Get Lost (3:18)
03. Them There Eyes (2:52)
04. Keeps On Rainin' (3:17)
05. God Bless The Child (3:11)
06. Do Your Duty (3:17)
07. You're My Thrill (3:25)
08. Gimmie A Pigfoot (And A Bottle Of Beer) (2:46)
09. Crazy He Calls Me (3:05)
10. Now Or Never (3:19)
11. Please Tell Me How (3:15)
12. Lover Man (Where Can You Be?) (3:23)
13. Good Morning Heartache (3:10)
14. Solitude (3:12)
15. This Is Heaven To Me (2:53)
 
EAC extraction logfile from 4. April 2008, 14:15 for CDBillie Holiday / From The Original Decca Masters

Used drive : LITE-ON LTR-52327S Adapter: 1 ID: 0Read mode : Secure with NO C2, accurate stream, disable cacheRead offset correction : 6Overread into Lead-In and Lead-Out : No

Used output format : C:\Program Files\FLAC\flac.exe (User Defined Encoder) 192 kBit/s Additional command line options : -8 -V -T "ARTIST=%a" -T "TITLE=%t" -T "ALBUM=%g" -T "DATE=%y" -T "TRACKNUMBER=%n" -T "GENRE=%m" -T "COMMENT=EAC Flac 1.1.4 -8" %s

Other options : Fill up missing offset samples with silence : Yes Delete leading and trailing silent blocks : No Native Win32 interface for Win NT & 2000

Track 1 Filename D:\My Uploads\Billie Holiday - From The Original Decca Masters (1986) [FLAC] (Hoffman)\01 - Ain't Nobody's Business If I Do.wav

Pre-gap length 0:00:02.00

Peak level 80.1 % Track quality 100.0 % Test CRC 6C44DC2C Copy CRC 6C44DC2C Copy OK

Track 2 Filename D:\My Uploads\Billie Holiday - From The Original Decca Masters (1986) [FLAC] (Hoffman)\02 - Baby Get Lost.wav

Pre-gap length 0:00:02.05

Peak level 89.1 % Track quality 100.0 % Test CRC AED40D67 Copy CRC AED40D67 Copy OK

Track 3 Filename D:\My Uploads\Billie Holiday - From The Original Decca Masters (1986) [FLAC] (Hoffman)\03 - Them There Eyes.wav

Pre-gap length 0:00:01.45

Peak level 97.5 % Track quality 100.0 % Test CRC 387D34A5 Copy CRC 387D34A5 Copy OK

Track 4 Filename D:\My Uploads\Billie Holiday - From The Original Decca Masters (1986) [FLAC] (Hoffman)\04 - Keeps On Rainin'.wav

Pre-gap length 0:00:01.55

Peak level 82.3 % Track quality 100.0 % Test CRC 605939E8 Copy CRC 605939E8 Copy OK

Track 5 Filename D:\My Uploads\Billie Holiday - From The Original Decca Masters (1986) [FLAC] (Hoffman)\05 - God Bless The Child.wav

Peak level 65.6 % Track quality 100.0 % Test CRC 092893F5 Copy CRC 092893F5 Copy OK

Track 6 Filename D:\My Uploads\Billie Holiday - From The Original Decca Masters (1986) [FLAC] (Hoffman)\06 - Do Your Duty.wav

Pre-gap length 0:00:00.60

Peak level 85.9 % Track quality 100.0 % Test CRC 7217C725 Copy CRC 7217C725 Copy OK

Track 7 Filename D:\My Uploads\Billie Holiday - From The Original Decca Masters (1986) [FLAC] (Hoffman)\07 - You're My Thrill.wav

Pre-gap length 0:00:01.10

Peak level 65.8 % Track quality 99.9 % Test CRC 5AA36AD9 Copy CRC 5AA36AD9 Copy OK

Track 8 Filename D:\My Uploads\Billie Holiday - From The Original Decca Masters (1986) [FLAC] (Hoffman)\08 - Gimmie A Pigfoot (And A Bottle Of Beer).wav

Pre-gap length 0:00:01.10

Peak level 76.8 % Track quality 100.0 % Test CRC A52FB7C1 Copy CRC A52FB7C1 Copy OK

Track 9 Filename D:\My Uploads\Billie Holiday - From The Original Decca Masters (1986) [FLAC] (Hoffman)\09 - Crazy He Calls Me.wav

Pre-gap length 0:00:01.20

Peak level 75.5 % Track quality 100.0 % Test CRC BFAF4797 Copy CRC BFAF4797 Copy OK

Track 10 Filename D:\My Uploads\Billie Holiday - From The Original Decca Masters (1986) [FLAC] (Hoffman)\10 - Now Or Never.wav

Pre-gap length 0:00:01.57

Peak level 96.4 % Track quality 100.0 % Test CRC 5B7CD7C1 Copy CRC 5B7CD7C1 Copy OK

Track 11 Filename D:\My Uploads\Billie Holiday - From The Original Decca Masters (1986) [FLAC] (Hoffman)\11 - Please Tell Me How.wav

Pre-gap length 0:00:01.52

Peak level 84.9 % Track quality 100.0 % Test CRC 15158414 Copy CRC 15158414 Copy OK

Track 12 Filename D:\My Uploads\Billie Holiday - From The Original Decca Masters (1986) [FLAC] (Hoffman)\12 - Lover Man (Where Can You Be ).wav

Pre-gap length 0:00:01.25

Peak level 68.7 % Track quality 100.0 % Test CRC AB4EC8CA Copy CRC AB4EC8CA Copy OK

Track 13 Filename D:\My Uploads\Billie Holiday - From The Original Decca Masters (1986) [FLAC] (Hoffman)\13 - Good Morning Heartache.wav

Pre-gap length 0:00:01.32

Peak level 79.2 % Track quality 100.0 % Test CRC 16D343B8 Copy CRC 16D343B8 Copy OK

Track 14 Filename D:\My Uploads\Billie Holiday - From The Original Decca Masters (1986) [FLAC] (Hoffman)\14 - Solitude.wav

Pre-gap length 0:00:02.02

Peak level 84.1 % Track quality 100.0 % Test CRC 5A04B7B9 Copy CRC 5A04B7B9 Copy OK

Track 15 Filename D:\My Uploads\Billie Holiday - From The Original Decca Masters (1986) [FLAC] (Hoffman)\15 - This Is Heaven To Me.wav

Pre-gap length 0:00:01.70

Peak level 87.1 % Track quality 99.9 % Test CRC 84D10073 Copy CRC 84D10073 Copy OK

No errors occured

End of status report

------------------------------------------------------------

EAC extraction logfile from 4. April 2008, 14:15 for CDBillie Holiday / From The Original Decca Masters

Used drive : LITE-ON LTR-52327S Adapter: 1 ID: 0Read mode : Secure with NO C2, accurate stream, disable cacheRead offset correction : 6Overread into Lead-In and Lead-Out : No

Used output format : C:\Program Files\FLAC\flac.exe (User Defined Encoder) 192 kBit/s Additional command line options : -8 -V -T "ARTIST=%a" -T "TITLE=%t" -T "ALBUM=%g" -T "DATE=%y" -T "TRACKNUMBER=%n" -T "GENRE=%m" -T "COMMENT=EAC Flac 1.1.4 -8" %s

Other options : Fill up missing offset samples with silence : Yes Delete leading and trailing silent blocks : No Native Win32 interface for Win NT & 2000

Track 1 Filename D:\My Uploads\Billie Holiday - From The Original Decca Masters (1986) [FLAC] (Hoffman)\01 - Ain't Nobody's Business If I Do.wav

Pre-gap length 0:00:02.00

Peak level 80.1 % Track quality 100.0 % Test CRC 6C44DC2C Copy CRC 6C44DC2C Copy OK

Track 2 Filename D:\My Uploads\Billie Holiday - From The Original Decca Masters (1986) [FLAC] (Hoffman)\02 - Baby Get Lost.wav

Pre-gap length 0:00:02.05

Peak level 89.1 % Track quality 100.0 % Test CRC AED40D67 Copy CRC AED40D67 Copy OK

Track 3 Filename D:\My Uploads\Billie Holiday - From The Original Decca Masters (1986) [FLAC] (Hoffman)\03 - Them There Eyes.wav

Pre-gap length 0:00:01.45

Peak level 97.5 % Track quality 100.0 % Test CRC 387D34A5 Copy CRC 387D34A5 Copy OK

Track 4 Filename D:\My Uploads\Billie Holiday - From The Original Decca Masters (1986) [FLAC] (Hoffman)\04 - Keeps On Rainin'.wav

Pre-gap length 0:00:01.55

Peak level 82.3 % Track quality 100.0 % Test CRC 605939E8 Copy CRC 605939E8 Copy OK

Track 5 Filename D:\My Uploads\Billie Holiday - From The Original Decca Masters (1986) [FLAC] (Hoffman)\05 - God Bless The Child.wav

Peak level 65.6 % Track quality 100.0 % Test CRC 092893F5 Copy CRC 092893F5 Copy OK

Track 6 Filename D:\My Uploads\Billie Holiday - From The Original Decca Masters (1986) [FLAC] (Hoffman)\06 - Do Your Duty.wav

Pre-gap length 0:00:00.60

Peak level 85.9 % Track quality 100.0 % Test CRC 7217C725 Copy CRC 7217C725 Copy OK

Track 7 Filename D:\My Uploads\Billie Holiday - From The Original Decca Masters (1986) [FLAC] (Hoffman)\07 - You're My Thrill.wav

Pre-gap length 0:00:01.10

Peak level 65.8 % Track quality 99.9 % Test CRC 5AA36AD9 Copy CRC 5AA36AD9 Copy OK

Track 8 Filename D:\My Uploads\Billie Holiday - From The Original Decca Masters (1986) [FLAC] (Hoffman)\08 - Gimmie A Pigfoot (And A Bottle Of Beer).wav

Pre-gap length 0:00:01.10

Peak level 76.8 % Track quality 100.0 % Test CRC A52FB7C1 Copy CRC A52FB7C1 Copy OK

Track 9 Filename D:\My Uploads\Billie Holiday - From The Original Decca Masters (1986) [FLAC] (Hoffman)\09 - Crazy He Calls Me.wav

Pre-gap length 0:00:01.20

Peak level 75.5 % Track quality 100.0 % Test CRC BFAF4797 Copy CRC BFAF4797 Copy OK

Track 10 Filename D:\My Uploads\Billie Holiday - From The Original Decca Masters (1986) [FLAC] (Hoffman)\10 - Now Or Never.wav

Pre-gap length 0:00:01.57

Peak level 96.4 % Track quality 100.0 % Test CRC 5B7CD7C1 Copy CRC 5B7CD7C1 Copy OK

Track 11 Filename D:\My Uploads\Billie Holiday - From The Original Decca Masters (1986) [FLAC] (Hoffman)\11 - Please Tell Me How.wav

Pre-gap length 0:00:01.52

Peak level 84.9 % Track quality 100.0 % Test CRC 15158414 Copy CRC 15158414 Copy OK

Track 12 Filename D:\My Uploads\Billie Holiday - From The Original Decca Masters (1986) [FLAC] (Hoffman)\12 - Lover Man (Where Can You Be ).wav

Pre-gap length 0:00:01.25

Peak level 68.7 % Track quality 100.0 % Test CRC AB4EC8CA Copy CRC AB4EC8CA Copy OK

Track 13 Filename D:\My Uploads\Billie Holiday - From The Original Decca Masters (1986) [FLAC] (Hoffman)\13 - Good Morning Heartache.wav

Pre-gap length 0:00:01.32

Peak level 79.2 % Track quality 100.0 % Test CRC 16D343B8 Copy CRC 16D343B8 Copy OK

Track 14 Filename D:\My Uploads\Billie Holiday - From The Original Decca Masters (1986) [FLAC] (Hoffman)\14 - Solitude.wav

Pre-gap length 0:00:02.02

Peak level 84.1 % Track quality 100.0 % Test CRC 5A04B7B9 Copy CRC 5A04B7B9 Copy OK

Track 15 Filename D:\My Uploads\Billie Holiday - From The Original Decca Masters (1986) [FLAC] (Hoffman)\15 - This Is Heaven To Me.wav

Pre-gap length 0:00:01.70

Peak level 87.1 % Track quality 99.9 % Test CRC 84D10073 Copy CRC 84D10073 Copy OK

No errors occured

End of status report


Трекер:  [ 29-Янв-2012 14:36 ]

  

Скачать .torrent

Размер .torrent файла 6 KB


Размер: 233 MB
Хэш (hash) релиза: 968245636fc782fccb0c6845ff52f243dcd93937

Еще никто не оставлял запись к записи скачать торрент Billie Holiday — From The Original Decca Masters — 1986, FLAC . Будь первым!

!Обратная связь