Скачать через торрент музыку Laïka бесплатно без регистрации torrent

Если у вас наблюдаются проблемы со скриншотами, переходом по ссылками, скачиванием торрентов - проблемы в блокировщике рекламы AdBlock. #хорошегоДня!


Статистика раздачи
Размер:  264 MB   |    Зарегистрирован:  5 лет 8 месяцев   |    .torrent скачан:  53 раза   |   
Раздают:  1  
   
Загрузка...
 
Автор Сообщение

Umakiro

avatar Umakiro


Laïka (Laika) Fatien - Misery (A Tribute To Billie Holiday)

Жанр: Vocal Jazz
Год выпуска диска: 2008
Аудио кодек: FLAC
Тип рипа: tracks + .cue
Битрейт аудио: lossless
Продолжительность: 51:06
Трэклист:
01. Strange Fruit (5:12)
02. Lady's Back In Town (4:15)
03. Don't Explain (3:07)
04. You Can't Lose A Broken Heart (3:18)
05. What's New (2:08)
06. All Of You (3:40)
07. How Deep Is The Ocean (4:39)
08. Lover Come Back To Me (4:39)
09. Misery (4:39)
10. You Turned The Tables On Me (4:55)
11. Gloomy Sunday (5:12)
12. Left Alone (5:21)

Состав исполнителей:
Laïka Fatien: vocal
Robert Glasper: piano
David El Malek: sax tenor (4,5,12)
Daryl Hall: doublebass
Gregory Hutchinson: drums
 
Exact Audio Copy V0.99 prebeta 5 from 4. May 2009

EAC extraction logfile from 23. May 2010, 10:55

Laпka Fatien / Misery: A Tribute To Billie Holiday

Used drive : LITE-ON LTR-48246S Adapter: 1 ID: 1

Read mode : SecureUtilize accurate stream : YesDefeat audio cache : YesMake use of C2 pointers : No

Read offset correction : 6Overread into Lead-In and Lead-Out : NoFill up missing offset samples with silence : YesDelete leading and trailing silent blocks : NoNull samples used in CRC calculations : YesUsed interface : Installed external ASPI interfaceGap handling : Appended to previous track

Used output format : User Defined EncoderSelected bitrate : 768 kBit/sQuality : HighAdd ID3 tag : NoCommand line compressor : C:\Program Files\EAC\FLAC\FLAC.EXEAdditional command line options : -6 -V -T "ALBUM=%g" -T "ARTIST=%a" -T "DATE=%y" -T "GENRE=%m" -T "TITLE=%t" -T "TRACKNUMBER=%n" %s -o %d

TOC of the extracted CD

Track | Start | Length | Start sector | End sector --------------------------------------------------------- 1 | 0:00.00 | 5:12.08 | 0 | 23407 2 | 5:12.08 | 4:15.10 | 23408 | 42542 3 | 9:27.18 | 3:07.13 | 42543 | 56580 4 | 12:34.31 | 3:18.08 | 56581 | 71438 5 | 15:52.39 | 2:07.70 | 71439 | 81033 6 | 18:00.34 | 3:39.49 | 81034 | 97507 7 | 21:40.08 | 4:39.32 | 97508 | 118464 8 | 26:19.40 | 4:39.25 | 118465 | 139414 9 | 30:58.65 | 4:38.53 | 139415 | 160317 10 | 35:37.43 | 4:54.74 | 160318 | 182441 11 | 40:32.42 | 5:12.23 | 182442 | 205864 12 | 45:44.65 | 5:21.36 | 205865 | 229975

Track 1

Filename D:\temp\Laпka Fatien - Misery_ A Tribute To Billie Holiday\01 - Strange Fruit.wav

Pre-gap length 0:00:02.00

Peak level 100.0 % Track quality 99.9 % Test CRC 5D660F1A Copy CRC 5D660F1A Copy OK

Track 2

Filename D:\temp\Laпka Fatien - Misery_ A Tribute To Billie Holiday\02 - Lady's Back In Town.wav

Peak level 100.0 % Track quality 100.0 % Test CRC 6F6D9B20 Copy CRC 6F6D9B20 Copy OK

Track 3

Filename D:\temp\Laпka Fatien - Misery_ A Tribute To Billie Holiday\03 - Don't Explain.wav

Pre-gap length 0:00:02.19

Peak level 88.8 % Track quality 100.0 % Test CRC B6BC34F6 Copy CRC B6BC34F6 Copy OK

Track 4

Filename D:\temp\Laпka Fatien - Misery_ A Tribute To Billie Holiday\04 - You Can't Lose A Broken Heart.wav

Peak level 100.0 % Track quality 100.0 % Test CRC 40A593F4 Copy CRC 40A593F4 Copy OK

Track 5

Filename D:\temp\Laпka Fatien - Misery_ A Tribute To Billie Holiday\05 - What's New.wav

Pre-gap length 0:00:03.19

Peak level 54.4 % Track quality 100.0 % Test CRC E0777BB5 Copy CRC E0777BB5 Copy OK

Track 6

Filename D:\temp\Laпka Fatien - Misery_ A Tribute To Billie Holiday\06 - All Of You.wav

Pre-gap length 0:00:02.16

Peak level 100.0 % Track quality 100.0 % Test CRC 2CCED0D4 Copy CRC 2CCED0D4 Copy OK

Track 7

Filename D:\temp\Laпka Fatien - Misery_ A Tribute To Billie Holiday\07 - How Deep Is The Ocean.wav

Pre-gap length 0:00:00.73

Peak level 100.0 % Track quality 100.0 % Test CRC AD7C9303 Copy CRC AD7C9303 Copy OK

Track 8

Filename D:\temp\Laпka Fatien - Misery_ A Tribute To Billie Holiday\08 - Lover Come Back To Me.wav

Pre-gap length 0:00:03.40

Peak level 100.0 % Track quality 100.0 % Test CRC 1E67804D Copy CRC 1E67804D Copy OK

Track 9

Filename D:\temp\Laпka Fatien - Misery_ A Tribute To Billie Holiday\09 - Misery.wav

Pre-gap length 0:00:01.58

Peak level 100.0 % Track quality 100.0 % Test CRC FFA0D7EB Copy CRC FFA0D7EB Copy OK

Track 10

Filename D:\temp\Laпka Fatien - Misery_ A Tribute To Billie Holiday\10 - You Turned The Tables On Me.wav

Pre-gap length 0:00:02.43

Peak level 100.0 % Track quality 100.0 % Test CRC F50E7F48 Copy CRC F50E7F48 Copy OK

Track 11

Filename D:\temp\Laпka Fatien - Misery_ A Tribute To Billie Holiday\11 - Gloomy Sunday.wav

Pre-gap length 0:00:02.25

Peak level 100.0 % Track quality 100.0 % Test CRC 62111E44 Copy CRC 62111E44 Copy OK

Track 12

Filename D:\temp\Laпka Fatien - Misery_ A Tribute To Billie Holiday\12 - Left Alone.wav

Pre-gap length 0:00:03.40

Peak level 97.9 % Track quality 100.0 % Test CRC D481D0AB Copy CRC D481D0AB Copy OK

No errors occurred

End of status report
 
-----------------------

DON'T MODIFY THIS FILE

-----------------------

PERFORMER: auCDtect Task Manager, ver. 1.5.1RC3 build 1.5.1.4Copyright (c) 2008-2010 y-soft. All rights reservedhttp://y-soft.org

ANALYZER: auCDtect: CD records authenticity detector, version 0.8.2Copyright (c) 2004 Oleg Berngardt. All rights reserved.Copyright (c) 2004 Alexander Djourik. All rights reserved.

FILE: 12 - Left Alone.flac Size: 29073706 Hash: 5EB06163BB1B057DA177E36F1B9498F5 Accuracy: -m0 Conclusion: CDDA 100% Signature: D23A7E97F41584DBF09D751DA734E49D4DB152A1FILE: 11 - Gloomy Sunday.flac Size: 24245509 Hash: 93B68F17836174A3356AF92DA8538CAB Accuracy: -m0 Conclusion: CDDA 100% Signature: 29950087A5C93DF79625A588914B87D1C009FB26FILE: 10 - You Turned The Tables On Me.flac Size: 30528696 Hash: C6279439907D17BE2A2B35428CC4E813 Accuracy: -m0 Conclusion: CDDA 100% Signature: C24CB90C04DB4C96CD6B8493573D524DAB50E559FILE: 09 - Misery.flac Size: 22911618 Hash: F013AEBDA4F393A784523187C8C28A52 Accuracy: -m0 Conclusion: CDDA 100% Signature: F07106A83368B0F2FB0A5ADB34DC966AF8E8E075FILE: 08 - Lover Come Back To Me.flac Size: 29835041 Hash: 8DCA8B92AB90B1C54AD91A08D371405C Accuracy: -m0 Conclusion: CDDA 100% Signature: 69D754A81089F73D41D3A4F825C22F8EA8011AA9FILE: 07 - How Deep Is The Ocean.flac Size: 26674700 Hash: F2E48EEF6EFBD4C5CB497AAA52E0AEF0 Accuracy: -m0 Conclusion: CDDA 100% Signature: D5532016E900558D364D14C6C7FFF62D03A2266BFILE: 06 - All Of You.flac Size: 21137306 Hash: 9F99EF14AEA26D4BBE3D67B8396EA093 Accuracy: -m0 Conclusion: CDDA 100% Signature: 013CA3440045D681B37589B36910BEB911B721E9FILE: 05 - What's New.flac Size: 8709079 Hash: 759AC3C6CADD7396589DB4C1CC8A4800 Accuracy: -m0 Conclusion: CDDA 100% Signature: C800AA0319EEC62684F6CEFF68BCDFA98F7BB6C9FILE: 04 - You Can't Lose A Broken Heart.flac Size: 23048635 Hash: B47B2D0975630AD6391D252F5720BF03 Accuracy: -m0 Conclusion: CDDA 100% Signature: A383FA0BFEE49833BB6416532F1177F5E45C8E56FILE: 03 - Don't Explain.flac Size: 14570777 Hash: 9FFAA32862FDDECF92F52BDB27A4DD6A Accuracy: -m0 Conclusion: CDDA 100% Signature: C8138A811D24140A05A43EBDBE641BB37997C955FILE: 02 - Lady's Back In Town.flac Size: 25006237 Hash: 6220F8CFD041EEAAF050D3415F436256 Accuracy: -m0 Conclusion: CDDA 100% Signature: 93197F330732400EDC6917795C6326936EEE107BFILE: 01 - Strange Fruit.flac Size: 20615580 Hash: 17F8CBE835693A6C5EDABD65C8843669 Accuracy: -m0 Conclusion: CDDA 100% Signature: A6464D8C42F5F6D13D8F30D83B6C8594C3DDAD6F
 
REM GENRE JazzREM DATE 2008REM DISCID A00BFA0CREM COMMENT "ExactAudioCopy v0.99pb5"PERFORMER "Laпka Fatien"TITLE "Misery: A Tribute To Billie Holiday"FILE "01 - Strange Fruit.wav" WAVE TRACK 01 AUDIO TITLE "Strange Fruit" PERFORMER "Laпka Fatien" INDEX 01 00:00:00FILE "02 - Lady's Back In Town.wav" WAVE TRACK 02 AUDIO TITLE "Lady's Back In Town" PERFORMER "Laпka Fatien" INDEX 01 00:00:00 TRACK 03 AUDIO TITLE "Don't Explain" PERFORMER "Laпka Fatien" INDEX 00 04:12:66FILE "03 - Don't Explain.wav" WAVE INDEX 01 00:00:00FILE "04 - You Can't Lose A Broken Heart.wav" WAVE TRACK 04 AUDIO TITLE "You Can't Lose A Broken Heart" PERFORMER "Laпka Fatien" INDEX 01 00:00:00 TRACK 05 AUDIO TITLE "What's New" PERFORMER "Laпka Fatien" INDEX 00 03:14:64FILE "05 - What's New.wav" WAVE INDEX 01 00:00:00 TRACK 06 AUDIO TITLE "All Of You" PERFORMER "Laпka Fatien" INDEX 00 02:05:54FILE "06 - All Of You.wav" WAVE INDEX 01 00:00:00 TRACK 07 AUDIO TITLE "How Deep Is The Ocean" PERFORMER "Laпka Fatien" INDEX 00 03:38:51FILE "07 - How Deep Is The Ocean.wav" WAVE INDEX 01 00:00:00 TRACK 08 AUDIO TITLE "Lover Come Back To Me" PERFORMER "Laпka Fatien" INDEX 00 04:35:67FILE "08 - Lover Come Back To Me.wav" WAVE INDEX 01 00:00:00 TRACK 09 AUDIO TITLE "Misery" PERFORMER "Laпka Fatien" INDEX 00 04:37:42FILE "09 - Misery.wav" WAVE INDEX 01 00:00:00 TRACK 10 AUDIO TITLE "You Turned The Tables On Me" PERFORMER "Laпka Fatien" INDEX 00 04:36:10FILE "10 - You Turned The Tables On Me.wav" WAVE INDEX 01 00:00:00 TRACK 11 AUDIO TITLE "Gloomy Sunday" PERFORMER "Laпka Fatien" INDEX 00 04:52:49FILE "11 - Gloomy Sunday.wav" WAVE INDEX 01 00:00:00 TRACK 12 AUDIO TITLE "Left Alone" PERFORMER "Laпka Fatien" INDEX 00 05:08:58FILE "12 - Left Alone.wav" WAVE INDEX 01 00:00:00
Доп. информация:
Источник - другой трекер. Релизер - Toshiro.

Трекер:  [ 29-Янв-2012 14:35 ]

  

Скачать .torrent

Размер .torrent файла 11 KB


Размер: 264 MB
Хэш (hash) релиза: f0230c0742962230b82bc78ee3041d6a71dd61f0

Торренты, похожие на Laïka скачать торрент

Форум Название Автор Размер S L Добавлен
Фольклор, Народная и Этническая музыка ·· [GRE] (Greek Folk, Laïka, Rebetiko) Γιώργος Ζαμπέτας (Giorgos Zabetas) - Τα σπάνια από.../(2 CD)-1995, MP3, 192 Galfimbul 141625094135 MB 0 0 1336505820

22:37

8-Май-12

Jazz, Blues (lossless) ·· (Vocal Jazz) Laïka (Laika) Fatien - Look at Me Now! - 2006, FLAC (tracks+.cue), lossless Umakiro 330546752315 MB 0 0 1327836912

14:35

29-Янв-12

Еще никто не оставлял запись к записи скачать торрент Laïka . Будь первым!

!Обратная связь