Скачать через торрент музыку Laïka бесплатно без регистрации torrent

Если у вас наблюдаются проблемы со скриншотами, переходом по ссылками, скачиванием торрентов - проблемы в блокировщике рекламы AdBlock. #хорошегоДня!


Статистика раздачи
Размер:  315 MB   |    Зарегистрирован:  5 лет 8 месяцев   |    .torrent скачан:  41 раз   |   
Раздают:  1  
   
Загрузка...
 
Автор Сообщение

Umakiro

avatar Umakiro


Laïka (Laika) Fatien - Look at Me Now!

Жанр: Vocal Jazz
Год выпуска диска: 2006
Аудио кодек: FLAC
Тип рипа: tracks+.cue
Битрейт аудио: lossless
Продолжительность: 56:27
Трэклист:
01. Love (1:52)
02. Zigaboogaloo (4:22)
03. Throw It Away (5:57)
04. Just Say Goodbye (4:23)
05. Where Are The Words (4:25)
06. Shallows (A Shade Of Jade) (4:09)
07. Silver Town (Serenity) (2:14)
08. Inchworm (3:08)
09. The Best Is Yet To Come (5:14)
10. Eleanor Rigby (4:50)
11. This Is For Albert Ayler (This Is For Albert) (3:46)
12. I Hear Music (4:09)
13. Bird Alone (Bonus) (7:58)
 
Exact Audio Copy V0.99 prebeta 5 from 4. May 2009

EAC extraction logfile from 29. April 2010, 22:02

Laika Fatien / Look at Me Now!

Used drive : LITE-ON LTR-48246S Adapter: 1 ID: 1

Read mode : SecureUtilize accurate stream : YesDefeat audio cache : YesMake use of C2 pointers : No

Read offset correction : 6Overread into Lead-In and Lead-Out : NoFill up missing offset samples with silence : YesDelete leading and trailing silent blocks : NoNull samples used in CRC calculations : YesUsed interface : Installed external ASPI interfaceGap handling : Appended to previous track

Used output format : User Defined EncoderSelected bitrate : 768 kBit/sQuality : HighAdd ID3 tag : NoCommand line compressor : C:\Program Files\EAC\FLAC\FLAC.EXEAdditional command line options : -6 -V -T "ALBUM=%g" -T "ARTIST=%a" -T "DATE=%y" -T "GENRE=%m" -T "TITLE=%t" -T "TRACKNUMBER=%n" %s -o %d

TOC of the extracted CD

Track | Start | Length | Start sector | End sector --------------------------------------------------------- 1 | 0:00.00 | 1:52.02 | 0 | 8401 2 | 1:52.02 | 4:21.43 | 8402 | 28019 3 | 6:13.45 | 5:57.12 | 28020 | 54806 4 | 12:10.57 | 4:23.33 | 54807 | 74564 5 | 16:34.15 | 4:25.26 | 74565 | 94465 6 | 20:59.41 | 4:08.71 | 94466 | 113136 7 | 25:08.37 | 2:13.45 | 113137 | 123156 8 | 27:22.07 | 3:08.35 | 123157 | 137291 9 | 30:30.42 | 5:14.15 | 137292 | 160856 10 | 35:44.57 | 4:50.26 | 160857 | 182632 11 | 40:35.08 | 3:46.04 | 182633 | 199586 12 | 44:21.12 | 4:09.03 | 199587 | 218264 13 | 48:30.15 | 7:57.43 | 218265 | 254082

Track 1

Filename D:\temp\Laпka Fatien - Look At Me Now!\01 - Love.wav

Pre-gap length 0:00:02.00

Peak level 100.0 % Track quality 100.0 % Test CRC 86DC09FF Copy CRC 86DC09FF Track not present in AccurateRip database Copy OK

Track 2

Filename D:\temp\Laпka Fatien - Look At Me Now!\02 - Zigaboogaloo.wav

Pre-gap length 0:00:02.09

Peak level 100.0 % Track quality 100.0 % Test CRC E3680B99 Copy CRC E3680B99 Track not present in AccurateRip database Copy OK

Track 3

Filename D:\temp\Laпka Fatien - Look At Me Now!\03 - Throw It Away.wav

Pre-gap length 0:00:01.47

Peak level 100.0 % Track quality 100.0 % Test CRC 96EBCFB7 Copy CRC 96EBCFB7 Track not present in AccurateRip database Copy OK

Track 4

Filename D:\temp\Laпka Fatien - Look At Me Now!\04 - Just Say Goodbye.wav

Pre-gap length 0:00:01.66

Peak level 100.0 % Track quality 100.0 % Test CRC B3EFB426 Copy CRC B3EFB426 Track not present in AccurateRip database Copy OK

Track 5

Filename D:\temp\Laпka Fatien - Look At Me Now!\05 - Where Are The Words.wav

Pre-gap length 0:00:02.09

Peak level 100.0 % Track quality 99.9 % Test CRC 21041ACC Copy CRC 21041ACC Track not present in AccurateRip database Copy OK

Track 6

Filename D:\temp\Laпka Fatien - Look At Me Now!\06 - Shallows (A Shade Of Jade).wav

Pre-gap length 0:00:02.12

Peak level 100.0 % Track quality 100.0 % Test CRC EBD968ED Copy CRC EBD968ED Track not present in AccurateRip database Copy OK

Track 7

Filename D:\temp\Laпka Fatien - Look At Me Now!\07 - Silver Town (Serenity).wav

Pre-gap length 0:00:01.45

Peak level 80.3 % Track quality 100.0 % Test CRC 32623BFC Copy CRC 32623BFC Track not present in AccurateRip database Copy OK

Track 8

Filename D:\temp\Laпka Fatien - Look At Me Now!\08 - Inchworm.wav

Pre-gap length 0:00:02.11

Peak level 100.0 % Track quality 100.0 % Test CRC 9A86D134 Copy CRC 9A86D134 Track not present in AccurateRip database Copy OK

Track 9

Filename D:\temp\Laпka Fatien - Look At Me Now!\09 - The Best Is Yet To Come.wav

Pre-gap length 0:00:01.70

Peak level 100.0 % Track quality 100.0 % Test CRC BCFEE1AB Copy CRC BCFEE1AB Track not present in AccurateRip database Copy OK

Track 10

Filename D:\temp\Laпka Fatien - Look At Me Now!\10 - Eleanor Rigby.wav

Pre-gap length 0:00:02.11

Peak level 99.2 % Track quality 100.0 % Test CRC B12150A5 Copy CRC B12150A5 Track not present in AccurateRip database Copy OK

Track 11

Filename D:\temp\Laпka Fatien - Look At Me Now!\11 - This Is For Albert Ayler (This Is For Albert).wav

Pre-gap length 0:00:01.74

Peak level 100.0 % Track quality 100.0 % Test CRC 7191074C Copy CRC 7191074C Track not present in AccurateRip database Copy OK

Track 12

Filename D:\temp\Laпka Fatien - Look At Me Now!\12 - I Hear Music.wav

Pre-gap length 0:00:01.49

Peak level 100.0 % Track quality 99.9 % Test CRC 62D4E0CC Copy CRC 62D4E0CC Track not present in AccurateRip database Copy OK

Track 13

Filename D:\temp\Laпka Fatien - Look At Me Now!\13 - Bird Alone (Bonus).wav

Pre-gap length 0:00:01.45

Peak level 100.0 % Track quality 100.0 % Test CRC 962F32ED Copy CRC 962F32ED Track not present in AccurateRip database Copy OK

None of the tracks are present in the AccurateRip database

No errors occurred

End of status report
 
-----------------------

DON'T MODIFY THIS FILE

-----------------------

PERFORMER: auCDtect Task Manager, ver. 1.5.1RC3 build 1.5.1.4Copyright (c) 2008-2010 y-soft. All rights reservedhttp://y-soft.org

ANALYZER: auCDtect: CD records authenticity detector, version 0.8.2Copyright (c) 2004 Oleg Berngardt. All rights reserved.Copyright (c) 2004 Alexander Djourik. All rights reserved.

FILE: 13 - Bird Alone (Bonus).flac Size: 47063251 Hash: EB6334089954E87E4D4309A716C1D948 Accuracy: -m0 Conclusion: CDDA 99% Signature: A1416603CADB2511CA3245910830FCB3F67056C9FILE: 12 - I Hear Music.flac Size: 28459499 Hash: AD30139907F87318A121A2C3D6D4DD84 Accuracy: -m0 Conclusion: CDDA 100% Signature: 7F40C2EF29A76096793C37E23B1153EE104CC1E1FILE: 11 - This Is For Albert Ayler (This Is For Albert).flac Size: 22126410 Hash: 62F110BDFBD7FE00880072A4E42DD1CE Accuracy: -m0 Conclusion: CDDA 100% Signature: A08FE5A69DE7546B6C85FB627C0D217F31DA0890FILE: 10 - Eleanor Rigby.flac Size: 19693668 Hash: E264F21DED9C97D6996635DF0C261F77 Accuracy: -m0 Conclusion: CDDA 100% Signature: 4B537AD1CB2D748D75519915B5565C9D8565DB9AFILE: 09 - The Best Is Yet To Come.flac Size: 34035305 Hash: 33AF72EB70822DD003A9E19C7399D6D0 Accuracy: -m0 Conclusion: CDDA 100% Signature: B03739C68058BC8C95E9FE96C639F67179201BFDFILE: 08 - Inchworm.flac Size: 19015318 Hash: 7591989EB7952CE9DD439C48745EEA39 Accuracy: -m0 Conclusion: CDDA 100% Signature: B2CE798FC0019BFB65560541E8C1515F9A52E462FILE: 07 - Silver Town (Serenity).flac Size: 8634235 Hash: 5AE8ADCBC76C56DB948171C65826EAF6 Accuracy: -m0 Conclusion: CDDA 100% Signature: FAA6837E40E4453AA40EBB2C8C6996F77B169A38FILE: 06 - Shallows (A Shade Of Jade).flac Size: 28316520 Hash: 6CE5E7F95DE6BEC2F72A20849ABA1F8A Accuracy: -m0 Conclusion: CDDA 100% Signature: 6CC649CFC8EE2C3B8900D84E8F2FFC4479C1159FFILE: 05 - Where Are The Words.flac Size: 18943770 Hash: FEDEEC05E053327A38840DC52B4D66E3 Accuracy: -m0 Conclusion: CDDA 99% Signature: E5FB7ABA3BFCC41BDEDA4F1584346B7236464307FILE: 04 - Just Say Goodbye.flac Size: 27354974 Hash: A352AE690FBD60E345E3C2DDC9CB9F22 Accuracy: -m0 Conclusion: CDDA 100% Signature: F6AC003B7C4B82502409EE5F60370D28EA08EC7FFILE: 03 - Throw It Away.flac Size: 36800813 Hash: 8373EB29F8DAEA2C22C1000B0B1C7330 Accuracy: -m0 Conclusion: CDDA 100% Signature: 7BC81B5059A7407FAD558D685FE364F3E571FDA2FILE: 02 - Zigaboogaloo.flac Size: 29283777 Hash: 30673101BB63EB03F9067CA0057C94BB Accuracy: -m0 Conclusion: CDDA 100% Signature: FAEC9D19C603134E89257C04B5C5A3A504AC0DAEFILE: 01 - Love.flac Size: 10805211 Hash: A6D51D204966489119491DD5C981449A Accuracy: -m0 Conclusion: CDDA 100% Signature: 78EB02977E8D2F83B36538D2CED306CB662C7ED0
 
REM GENRE JazzREM DATE 2006REM DISCID A50D3B0DREM COMMENT "ExactAudioCopy v0.99pb5"PERFORMER "Laпka Fatien"TITLE "Look At Me Now!"FILE "01 - Love.wav" WAVE TRACK 01 AUDIO TITLE "Love" PERFORMER "Laпka Fatien" INDEX 01 00:00:00 TRACK 02 AUDIO TITLE "Zigaboogaloo" PERFORMER "Laпka Fatien" INDEX 00 01:49:68FILE "02 - Zigaboogaloo.wav" WAVE INDEX 01 00:00:00 TRACK 03 AUDIO TITLE "Throw It Away" PERFORMER "Laпka Fatien" INDEX 00 04:19:71FILE "03 - Throw It Away.wav" WAVE INDEX 01 00:00:00 TRACK 04 AUDIO TITLE "Just Say Goodbye" PERFORMER "Laпka Fatien" INDEX 00 05:55:21FILE "04 - Just Say Goodbye.wav" WAVE INDEX 01 00:00:00 TRACK 05 AUDIO TITLE "Where Are The Words" PERFORMER "Laпka Fatien" INDEX 00 04:21:24FILE "05 - Where Are The Words.wav" WAVE INDEX 01 00:00:00 TRACK 06 AUDIO TITLE "Shallows (A Shade Of Jade)" PERFORMER "Laпka Fatien" INDEX 00 04:23:14FILE "06 - Shallows (A Shade Of Jade).wav" WAVE INDEX 01 00:00:00 TRACK 07 AUDIO TITLE "Silver Town (Serenity)" PERFORMER "Laпka Fatien" INDEX 00 04:07:26FILE "07 - Silver Town (Serenity).wav" WAVE INDEX 01 00:00:00 TRACK 08 AUDIO TITLE "Inchworm" PERFORMER "Laпka Fatien" INDEX 00 02:11:34FILE "08 - Inchworm.wav" WAVE INDEX 01 00:00:00 TRACK 09 AUDIO TITLE "The Best Is Yet To Come" PERFORMER "Laпka Fatien" INDEX 00 03:06:40FILE "09 - The Best Is Yet To Come.wav" WAVE INDEX 01 00:00:00 TRACK 10 AUDIO TITLE "Eleanor Rigby" PERFORMER "Laпka Fatien" INDEX 00 05:12:04FILE "10 - Eleanor Rigby.wav" WAVE INDEX 01 00:00:00 TRACK 11 AUDIO TITLE "This Is For Albert Ayler (This Is For Albert)" PERFORMER "Laпka Fatien" INDEX 00 04:48:27FILE "11 - This Is for Albert Ayler (This Is For Albert).wav" WAVE INDEX 01 00:00:00 TRACK 12 AUDIO TITLE "I Hear Music" PERFORMER "Laпka Fatien" INDEX 00 03:44:30FILE "12 - I Hear Music.wav" WAVE INDEX 01 00:00:00 TRACK 13 AUDIO TITLE "Bird Alone (Bonus)" PERFORMER "Laпka Fatien" INDEX 00 04:07:33FILE "13 - Bird Alone (Bonus).wav" WAVE INDEX 01 00:00:00
Доп. информация:
Источник - другой трекер. Релизер - Toshiro.

Трекер:  [ 29-Янв-2012 14:35 ]

  

Скачать .torrent

Размер .torrent файла 13 KB


Размер: 315 MB
Хэш (hash) релиза: 12fdc77feb63079c48029b3cdc163c122d293db8

Торренты, похожие на Laïka скачать торрент

Форум Название Автор Размер S L Добавлен
Фольклор, Народная и Этническая музыка ·· [GRE] (Greek Folk, Laïka, Rebetiko) Γιώργος Ζαμπέτας (Giorgos Zabetas) - Τα σπάνια από.../(2 CD)-1995, MP3, 192 Galfimbul 141625094135 MB 0 0 1336505820

22:37

8-Май-12

Jazz, Blues (lossless) ·· (Vocal Jazz) Laïka (Laika) Fatien - Misery (A Tribute To Billie Holiday) - 2008, FLAC (tracks + .cue), lossless Umakiro 276633945264 MB 0 0 1327836954

14:35

29-Янв-12

Еще никто не оставлял запись к записи скачать торрент Laïka . Будь первым!

!Обратная связь