Скачать через торрент музыку The Swingle Singers - The Blue Skies - 1996, FLAC бесплатно без регистрации torrent

Если у вас наблюдаются проблемы со скриншотами, переходом по ссылками, скачиванием торрентов - проблемы в блокировщике рекламы AdBlock. #хорошегоДня!


Статистика раздачи
Размер:  319 MB   |    Зарегистрирован:  5 лет 8 месяцев   |    .torrent скачан:  38 раз   |   
Раздают:  1  
   
Загрузка...
 
Автор Сообщение

Umakiro

avatar Umakiro


The Swingle Singers - The Blue Skies

Жанр: Vocal Jazz
Страна-производитель диска: Россия
Год издания диска: 1996
Аудиокодек: FLAC (*.flac)
Тип рипа: image+.cue
Битрейт аудио: lossless
Продолжительность: 00:59:27
Источник (релизер): аффтар раздачи
Наличие сканов в содержимом раздачи: да
Треклист:
01. Top hat white tie and tails [0:02:17.00]
02. How deep is the ocean [0:03:29.28]
03. It's a lovely day, isn't it a lovely day [0:03:55.40]
04. Blue skies [0:03:19.07]
05. Always [0:02:18.35]
06. They say it's wonderful [0:03:01.68]
07. No strings [0:02:17.32]
08. The song is ended [0:03:57.68]
09. Stepping out with my baby [0:02:43.07]
10. White Christmas [0:02:32.45]
11. Let yourself go [0:02:28.00]
12. Cheek to cheek / Let's face the music and dance [0:03:52.28]
13. Marrying for love / The girl that I marry [0:03:37.40]
14. What'll I do [0:03:22.32]
15. Puttin' on the Ritz [0:02:34.50]
16. Abraham [0:02:31.65]
17. Change partners [0:03:10.08]
18. Heatwave [0:02:53.57]
19. I've got my love to keep me warm [0:02:48.03]
20. Count your blessings [0:02:16.00]
 
Exact Audio Copy V0.99 prebeta 4 from 23. January 2008

EAC extraction logfile from 29. September 2011, 13:54

The Swingle Singers / The Blue Skies

Used drive : PLEXTOR DVDR PX-800A Adapter: 3 ID: 0

Read mode : SecureUtilize accurate stream : YesDefeat audio cache : YesMake use of C2 pointers : No

Read offset correction : 48Overread into Lead-In and Lead-Out : NoFill up missing offset samples with silence : YesDelete leading and trailing silent blocks : NoNull samples used in CRC calculations : YesUsed interface : Native Win32 interface for Win NT & 2000

Used output format : Internal WAV RoutinesSample format : 44.100 Hz; 16 Bit; Stereo

TOC of the extracted CD

Track | Start | Length | Start sector | End sector --------------------------------------------------------- 1 | 0:00.32 | 2:17.00 | 32 | 10306 2 | 2:17.32 | 3:29.28 | 10307 | 26009 3 | 5:46.60 | 3:55.40 | 26010 | 43674 4 | 9:42.25 | 3:19.07 | 43675 | 58606 5 | 13:01.32 | 2:18.35 | 58607 | 68991 6 | 15:19.67 | 3:01.68 | 68992 | 82634 7 | 18:21.60 | 2:17.32 | 82635 | 92941 8 | 20:39.17 | 3:57.68 | 92942 | 110784 9 | 24:37.10 | 2:43.07 | 110785 | 123016 10 | 27:20.17 | 2:32.45 | 123017 | 134461 11 | 29:52.62 | 2:28.00 | 134462 | 145561 12 | 32:20.62 | 3:52.28 | 145562 | 162989 13 | 36:13.15 | 3:37.40 | 162990 | 179304 14 | 39:50.55 | 3:22.32 | 179305 | 194486 15 | 43:13.12 | 2:34.50 | 194487 | 206086 16 | 45:47.62 | 2:31.65 | 206087 | 217476 17 | 48:19.52 | 3:10.08 | 217477 | 231734 18 | 51:29.60 | 2:53.57 | 231735 | 244766 19 | 54:23.42 | 2:48.03 | 244767 | 257369 20 | 57:11.45 | 2:16.00 | 257370 | 267569

Range status and errors

Selected range

Filename D:\SSKAIN\The Swingle Singers - The Blue Skies - 1996\The Swingle Singers - The Blue Skies.wav

Peak level 82.7 % Range quality 99.9 % Test CRC EC289889 Copy CRC EC289889 Copy OK

No errors occurred

AccurateRip summary

Track 1 not present in databaseTrack 2 not present in databaseTrack 3 not present in databaseTrack 4 not present in databaseTrack 5 not present in databaseTrack 6 not present in databaseTrack 7 not present in databaseTrack 8 not present in databaseTrack 9 not present in databaseTrack 10 not present in databaseTrack 11 not present in databaseTrack 12 not present in databaseTrack 13 not present in databaseTrack 14 not present in databaseTrack 15 not present in databaseTrack 16 not present in databaseTrack 17 not present in databaseTrack 18 not present in databaseTrack 19 not present in databaseTrack 20 not present in database

None of the tracks are present in the AccurateRip database

End of status report


Трекер:  [ 29-Янв-2012 14:34 ]

  

Скачать .torrent

Размер .torrent файла 13 KB


Размер: 319 MB
Хэш (hash) релиза: ea7d997a4f8a20281aacf8859a2ff7f9a57b0e64

Еще никто не оставлял запись к записи скачать торрент The Swingle Singers - The Blue Skies - 1996, FLAC . Будь первым!

!Обратная связь