Скачать через торрент музыку Gamine – Sabotage - 2007, FLAC бесплатно без регистрации torrent

Если у вас наблюдаются проблемы со скриншотами, переходом по ссылками, скачиванием торрентов - проблемы в блокировщике рекламы AdBlock. #хорошегоДня!


Статистика раздачи
Размер:  314 MB   |    Зарегистрирован:  5 лет 8 месяцев   |    .torrent скачан:  39 раз   |   
Раздают:  1  
   
Загрузка...
 
Автор Сообщение

Umakiro

avatar Umakiro


Gamine – Sabotage

Жанр: Vocal Jazz, Pop
Год выпуска диска: 2007
Производитель диска: Россия, Soyuz Music (SZCD 4395)
Аудио кодек: FLAC
Тип рипа: tracks+.cue
Битрейт аудио: lossless
Продолжительность: 00:58:40

Трэклист:
01. Sabotage (4:31)
02. Oh, What a Kiss! (5:40)
03. Love and Poverty (3:01)
04. Happy Birthday (3:19)
05. Requiem No. 1 (3:43)
06. Oh, Mon Cheri! (2:54)
07. Black Window (4:53)
08. Blue It Is (5:35)
09. Street in Manhattan (4:58)
10. Checkmate (3:43)
11. A Good Hand (8:02)
12. The Goodbye Story (4:48)
13. Oh, What a Kiss! (French Kiss Remix) (3:35)
 
Exact Audio Copy V0.99 prebeta 5 from 4. May 2009

EAC extraction logfile from 28. May 2009, 21:50

Gamine / Sabotage

Used drive : PIONEER DVD-RW DVR-K06RS Adapter: 1 ID: 0

Read mode : SecureUtilize accurate stream : YesDefeat audio cache : YesMake use of C2 pointers : No

Read offset correction : 48Overread into Lead-In and Lead-Out : NoFill up missing offset samples with silence : YesDelete leading and trailing silent blocks : NoNull samples used in CRC calculations : YesUsed interface : Native Win32 interface for Win NT & 2000Gap handling : Appended to previous track

Used output format : User Defined EncoderSelected bitrate : 128 kBit/sQuality : HighAdd ID3 tag : NoCommand line compressor : C:\Program Files\FLAC\flac.exeAdditional command line options : -8 -V -T "ARTIST=%a" -T "TITLE=%t" -T "ALBUM=%g" -T "DATE=%y" -T "TRACKNUMBER=%n" -T "GENRE=%m" -T "COMMENT=EAC FLAC -8" %s

TOC of the extracted CD

Track | Start | Length | Start sector | End sector --------------------------------------------------------- 1 | 0:00.00 | 4:30.50 | 0 | 20299 2 | 4:30.50 | 5:39.60 | 20300 | 45784 3 | 10:10.35 | 3:00.64 | 45785 | 59348 4 | 13:11.24 | 3:18.66 | 59349 | 74264 5 | 16:30.15 | 3:42.38 | 74265 | 90952 6 | 20:12.53 | 2:53.58 | 90953 | 103985 7 | 23:06.36 | 4:52.70 | 103986 | 125955 8 | 27:59.31 | 5:35.23 | 125956 | 151103 9 | 33:34.54 | 4:57.74 | 151104 | 173452 10 | 38:32.53 | 3:43.05 | 173453 | 190182 11 | 42:15.58 | 8:01.38 | 190183 | 226295 12 | 50:17.21 | 4:47.60 | 226296 | 247880 13 | 55:05.06 | 3:34.42 | 247881 | 263972 14 | 61:11.48 | 5:32.16 | 275373 | 300288

Track 1

Filename D:\torrents\releasing\Gamine - Sabotage (2005) [FLAC]\01. Gamine - Sabotage.wav

Pre-gap length 0:00:02.00

Peak level 96.3 % Track quality 100.0 % Test CRC 1561A55B Copy CRC 1561A55B Track not present in AccurateRip database Copy OK

Track 2

Filename D:\torrents\releasing\Gamine - Sabotage (2005) [FLAC]\02. Gamine - Oh, What a Kiss!.wav

Pre-gap length 0:00:05.01

Peak level 97.9 % Track quality 100.0 % Test CRC 6AB94653 Copy CRC 6AB94653 Track not present in AccurateRip database Copy OK

Track 3

Filename D:\torrents\releasing\Gamine - Sabotage (2005) [FLAC]\03. Gamine - Love and Poverty.wav

Pre-gap length 0:00:05.00

Peak level 96.8 % Track quality 100.0 % Test CRC C0494F74 Copy CRC C0494F74 Track not present in AccurateRip database Copy OK

Track 4

Filename D:\torrents\releasing\Gamine - Sabotage (2005) [FLAC]\04. Gamine - Happy Birthday.wav

Pre-gap length 0:00:05.00

Peak level 97.4 % Track quality 99.9 % Test CRC 50BB9DBE Copy CRC 50BB9DBE Track not present in AccurateRip database Copy OK

Track 5

Filename D:\torrents\releasing\Gamine - Sabotage (2005) [FLAC]\05. Gamine - Requiem No. 1.wav

Pre-gap length 0:00:05.00

Peak level 98.8 % Track quality 99.9 % Test CRC 54A32BA5 Copy CRC 54A32BA5 Track not present in AccurateRip database Copy OK

Track 6

Filename D:\torrents\releasing\Gamine - Sabotage (2005) [FLAC]\06. Gamine - Oh, Mon Cheri!.wav

Pre-gap length 0:00:05.00

Peak level 93.8 % Track quality 100.0 % Test CRC AE2BAC09 Copy CRC AE2BAC09 Track not present in AccurateRip database Copy OK

Track 7

Filename D:\torrents\releasing\Gamine - Sabotage (2005) [FLAC]\07. Gamine - Black Window.wav

Pre-gap length 0:00:05.00

Peak level 98.2 % Track quality 100.0 % Test CRC 312BDAF3 Copy CRC 312BDAF3 Track not present in AccurateRip database Copy OK

Track 8

Filename D:\torrents\releasing\Gamine - Sabotage (2005) [FLAC]\08. Gamine - Blue It Is.wav

Pre-gap length 0:00:05.00

Peak level 98.9 % Track quality 100.0 % Test CRC 9FCCD489 Copy CRC 9FCCD489 Track not present in AccurateRip database Copy OK

Track 9

Filename D:\torrents\releasing\Gamine - Sabotage (2005) [FLAC]\09. Gamine - Street in Manhattan.wav

Pre-gap length 0:00:05.00

Peak level 94.6 % Track quality 100.0 % Test CRC 679E3953 Copy CRC 679E3953 Track not present in AccurateRip database Copy OK

Track 10

Filename D:\torrents\releasing\Gamine - Sabotage (2005) [FLAC]\10. Gamine - Checkmate.wav

Pre-gap length 0:00:05.00

Peak level 97.4 % Track quality 100.0 % Test CRC C7BF26F6 Copy CRC C7BF26F6 Track not present in AccurateRip database Copy OK

Track 11

Filename D:\torrents\releasing\Gamine - Sabotage (2005) [FLAC]\11. Gamine - A Good Hand.wav

Pre-gap length 0:00:05.00

Peak level 98.9 % Track quality 99.9 % Test CRC CBEE9547 Copy CRC CBEE9547 Track not present in AccurateRip database Copy OK

Track 12

Filename D:\torrents\releasing\Gamine - Sabotage (2005) [FLAC]\12. Gamine - The Goodbye Story.wav

Pre-gap length 0:00:05.00

Peak level 97.0 % Track quality 100.0 % Test CRC 1D96A5D5 Copy CRC 1D96A5D5 Track not present in AccurateRip database Copy OK

Track 13

Filename D:\torrents\releasing\Gamine - Sabotage (2005) [FLAC]\13. Gamine - Oh, What a Kiss! (French Kiss Remix).wav

Pre-gap length 0:00:10.00

Peak level 97.4 % Track quality 100.0 % Test CRC 765F26E4 Copy CRC 765F26E4 Track not present in AccurateRip database Copy OK

None of the tracks are present in the AccurateRip database

No errors occurred

End of status report
Доп. информация: Группа с игривым названием Gamine - камерно-гламурный дуэт, проповедующий культуру и эстетику 60-х. Что тут ещё скажешь? Всё лежит на поверхности, ничего лишнего. Да, их музыка могла бы служить саундтреками для каких-нибудь мелодрам, вроде "Мужчина и женщина" или "Бассейн". Да, Серж Гинсбур, Энрико Мориконе, Мишель Легран явно переборщили со своим влиянием на восприимчивых англичан - вокалистку Клаудию Бартон и пианиста-композитора Йэна Уильямса. Всю эту шелуху сравнений и аналогий может привести любой любитель старого французского кино и музыки, вдруг решивший послушать новый, второй альбом Gamine "Sabotage".
Однако есть в этих двух задумчивых британцах что-то более неуловимое, нежели просто дух времени и просто мелодичность. В наше время немаловажную, а порой и решающую роль в создании какого-либо творческого проекта играет идея, концепция. Сейчас вам уже не обязательно быть виртуозом академического пения или супер-гитаристом - достаточно поставить себя в контекст той или иной стилистики - пусть даже и придуманной вами самим. Что и проделывают со своим слушателем прекрасный в своей псевдо-эстетичности дуэт Gamine. Например, заглавный трек "Sabotage" - это вроде бы и иллюстрация к какому-нибудь старенькому мылу, но, в то же время, и саунд и сама фактура композиции очень напоминают заглавный трек из фильма "Kill Bill" "Bang Bang (My Baby Shot Me Down)" в исполнении Нэнси Синатры (Nancy Sinatra). Только вместо зафлэнжерованной меланхоличной гитары - зафлэнжерованное пианино, вызывающее иллюзию ретро-записи. Но, ведь если задуматься: в 60-е никому из исполнителей-шансонье и в голову не приходило видоизменять привычно-уютный звук рояля.
"Sabotage" - это более, чем просто стилизация - это стилизованная рефлексия, робкое и немного игривое смещение акцентов. Примерно тот же эффект незаметного смешения ретро с современностью происходит и в танго "Black Wind". Острая смесь французской адаптации танго, Астора Пиацолло (ну, куда ж без него) и (эстеты, теперь спокойнее) - Gotan Project. По характеру и по саунду трек тонко следует песенке Gotan Project "Noon Cafe". Но вот в песню "Black Wind" заползает театральная пауза - и аналогия бесследно улетучивается. Не хочется сравнивать Gamine с дорогими духами или не менее дорогим вино. Это действительно интересный проект. Кроме всего прочего, у них нет недостатка в неплохих запоминающихся мелодиях. Но целый альбом, выдержанный в скупой моностилистике взять нахрапом с первого раза всё-таки трудновато.
Источник – Звуки.Ру.
Gamine website
Gamine on MySpace

Трекер:  [ 29-Янв-2012 14:33 ]

  

Скачать .torrent

Размер .torrent файла 14 KB


Размер: 314 MB
Хэш (hash) релиза: 81a54e9cc5cd9228d42bc3734ae91e5d0adf32ef

Еще никто не оставлял запись к записи скачать торрент Gamine – Sabotage - 2007, FLAC . Будь первым!

!Обратная связь