Скачать через торрент музыку Mario Biondi - Handful Of Soul - 2006, APE бесплатно без регистрации torrent

Если у вас наблюдаются проблемы со скриншотами, переходом по ссылками, скачиванием торрентов - проблемы в блокировщике рекламы AdBlock. #хорошегоДня!


Статистика раздачи
Размер:  408 MB   |    Зарегистрирован:  5 лет 8 месяцев   |    .torrent скачан:  32 раза   |   
Раздают:  1  
   
Загрузка...
 
Автор Сообщение

Umakiro

avatar Umakiro


Mario Biondi & The High Five Quintet - Handful Of Soul

Страна: Италия
Жанр: Rhythm & Blues and Soul, Jazz
Год выпуска: 2006
Формат: APE (image + .cue)
Битрейт аудио: lossless
Продолжительность: 55:50
Трэклист:
01. A Child Runs Free (5:56)
02. No Mercy For Me (3:49)
03. This Is What You Are (7:11)
04. Rio De Janeiro Blue (4:10)
05. Slow Hot Wind (4:04)
06. A Handful Of Soul (4:23)
07. Never Die (5:32)
08. On A Clear Day (You Can See Forever) (3:15)
09. Gig (3:43)
10. I Can't Keep From Cryin' Sometimes (4:57)
11. No Trouble On The Mountain (4:25)
12. I'm Her Daddy (4:24)

Доп. информация:
Exact Audio Copy V0.99 prebeta 3 from 28. July 2007

EAC extraction logfile from 23. January 2008, 15:50

Mario Biondi / Handful Of Soul

Used drive : _NEC DVD_RW ND-4551A Adapter: 0 ID: 1

Read mode : Secure
Utilize accurate stream : Yes
Defeat audio cache : Yes
Make use of C2 pointers : No

Read offset correction : 48
Overread into Lead-In and Lead-Out : No
Fill up missing offset samples with silence : Yes
Delete leading and trailing silent blocks : No
Null samples used in CRC calculations : Yes
Used interface : Installed external ASPI interface

Used output format : Internal WAV Routines
Sample format : 44.100 Hz; 16 Bit; Stereo

TOC of the extracted CD

Track | Start | Length | Start sector | End sector
---------------------------------------------------------
1 | 0:00.00 | 5:55.47 | 0 | 26671
2 | 5:55.47 | 3:49.36 | 26672 | 43882
3 | 9:45.08 | 7:11.04 | 43883 | 76211
4 | 16:56.12 | 4:10.26 | 76212 | 94987
5 | 21:06.38 | 4:03.59 | 94988 | 113271
6 | 25:10.22 | 4:22.66 | 113272 | 132987
7 | 29:33.13 | 5:32.27 | 132988 | 157914
8 | 35:05.40 | 3:14.65 | 157915 | 172529
9 | 38:20.30 | 3:43.03 | 172530 | 189257
10 | 42:03.33 | 4:56.70 | 189258 | 211527
11 | 47:00.28 | 4:25.13 | 211528 | 231415
12 | 51:25.41 | 4:24.12 | 231416 | 251227

Range status and errors

Selected range

Filename G:\MUSIC_LOSSLESS\Mario_Biondi_-_Handful_of_soul_(2006)\Mario_Biondi_-_Handful_of_soul_(2006).wav

Peak level 99.9 %
Range quality 100.0 %
Copy CRC FFB9914A
Copy OK

No errors occurred

AccurateRip summary

Track 1 accurately ripped (confidence 5) [A1C70941]
Track 2 accurately ripped (confidence 4) [84A269A7]
Track 3 accurately ripped (confidence 4) [51E5BDF2]
Track 4 accurately ripped (confidence 4) [C622D59B]
Track 5 accurately ripped (confidence 4) [DEB4A508]
Track 6 accurately ripped (confidence 4) [0D5640A5]
Track 7 accurately ripped (confidence 4) [2626BEBA]
Track 8 accurately ripped (confidence 4) [D61AA461]
Track 9 accurately ripped (confidence 4) [AA22FF0C]
Track 10 accurately ripped (confidence 4) [0340BEF4]
Track 11 accurately ripped (confidence 4) [AE32E8FA]
Track 12 accurately ripped (confidence 4) [8B52BBB7]

All tracks accurately ripped

End of status report
Хотя поет он исключительно на английском, все песни у него звучат как настоящие итальянские канцоны - красиво, нежно, мелодично. Но при этом не следует забывать, что все его номера звучат в очень жестком, энергичном джаз-роковом ритме и манере. Марио Бионди необычайно популярен у себя на родине. У него несколько выпущенных альбомов, последний из которых - "Handful of Soul" - записан в 2006 году.

Трекер:  [ 29-Янв-2012 14:32 ]

  

Скачать .torrent

Размер .torrent файла 17 KB


Размер: 408 MB
Хэш (hash) релиза: 5c1330c75f13e66016bdcdd3f76aba635fe94639

Еще никто не оставлял запись к записи скачать торрент Mario Biondi - Handful Of Soul - 2006, APE . Будь первым!

!Обратная связь