Скачать через торрент музыку Laura Fygi - The Best Is Yet To Come - 2011, APE бесплатно без регистрации torrent

Если у вас наблюдаются проблемы со скриншотами, переходом по ссылками, скачиванием торрентов - проблемы в блокировщике рекламы AdBlock. #хорошегоДня!


Статистика раздачи
Размер:  301 MB   |    Зарегистрирован:  5 лет 8 месяцев   |    .torrent скачан:  35 раз   |   
Раздают:  1  
   
Загрузка...
 
Автор Сообщение

Umakiro

avatar Umakiro


Laura Fygi / The Best Is Yet To Come

Жанр: vocal jazz
Страна-производитель диска: Россия (пиратка)
Год издания диска: 2011
Аудиокодек: APE (*.ape)
Тип рипа: image+.cue
Битрейт аудио: lossless
Продолжительность: 51-00
Источник (релизер): мой рип
Наличие сканов в содержимом раздачи: нет
Треклист:
01 The Best Is Yet To Come
02 Smile
03 Too Darn Hot
04 I've Got A Crush On You
05 This Can't Be Love
06 Cheek To Cheek
07 Fever
08 That Old Black Magic
09 It's Easy To remember
10 You and the Night and the Music
11 Old Devil Moon
12 The Good Life
13 Rose, Rose, I Love You
 
Exact Audio Copy V0.99 prebeta 5 from 4. May 2009

Отчёт EAC об извлечении, выполненном 24. июня 2011, 0:44

Laura Fygi / The Best Is Yet To Come

Дисковод: SlimtypeDVD A DS8A2S Adapter: 1 ID: 0

Режим чтения : ДостоверностьИспользование точного потока : ДаОтключение кэша аудио : ДаИспользование указателей C2 : Нет

Коррекция смещения при чтении : 6Способность читать области Lead-in и Lead-out : НетЗаполнение пропущенных сэмплов тишиной : ДаУдаление блоков с тишиной в начале и конце : НетПри вычислениях CRC использовались нулевые сэмплы : ДаИнтерфейс : Встроенный Win32-интерфейс для Win NT/2000

Выходной формат : Внутренние WAV-операцииФормат сэмплов : 44.100 Гц; 16 бит; стерео

TOC извлечённого CD

Трек | Старт | Длительность | Начальный сектор | Конечный сектор --------------------------------------------------------------------- 1 | 0:00.00 | 3:16.68 | 0 | 14767 2 | 3:16.68 | 3:36.74 | 14768 | 31041 3 | 6:53.67 | 3:59.05 | 31042 | 48971 4 | 10:52.72 | 3:50.30 | 48972 | 66251 5 | 14:43.27 | 3:37.31 | 66252 | 82557 6 | 18:20.58 | 3:54.62 | 82558 | 100169 7 | 22:15.45 | 3:56.71 | 100170 | 117940 8 | 26:12.41 | 4:20.43 | 117941 | 137483 9 | 30:33.09 | 4:53.28 | 137484 | 159486 10 | 35:26.37 | 3:28.44 | 159487 | 175130 11 | 38:55.06 | 4:26.12 | 175131 | 195092 12 | 43:21.18 | 4:25.18 | 195093 | 214985 13 | 47:46.36 | 3:13.46 | 214986 | 229506

Характеристики диапазона извлечения и сообщения об ошибках

Выбранный диапазон

Имя файла D:\lossless\Laura Fygi - The Best Is Yet To Come.wav

Пиковый уровень 100.0 % Качество диапазона 99.9 % CRC копии E6F00007 Копирование... OK

Ошибок не произошло

Конец отчёта
Доп. информация: http://www.laurafygi.com/media/

Трекер:  [ 29-Янв-2012 14:32 ]

  

Скачать .torrent

Размер .torrent файла 12 KB


Размер: 301 MB
Хэш (hash) релиза: 27a0b8471b836926246c386bc3fd005ff0c166f0

Еще никто не оставлял запись к записи скачать торрент Laura Fygi - The Best Is Yet To Come - 2011, APE . Будь первым!

!Обратная связь