Скачать через торрент музыку Bobby Caldwell - What You Wont Do For Love - 1978, APE бесплатно без регистрации torrent

Если у вас наблюдаются проблемы со скриншотами, переходом по ссылками, скачиванием торрентов - проблемы в блокировщике рекламы AdBlock. #хорошегоДня!


Статистика раздачи
Размер:  190 MB   |    Зарегистрирован:  5 лет 8 месяцев   |    .torrent скачан:  25 раз   |   
Раздают:  1  
   
Загрузка...
 
Автор Сообщение

Umakiro

avatar Umakiro


Bobby Caldwell- What You Won't Do For Love

Жанр: Smooth-Jazz,Vocal
Год выпуска диска: 1978
Производитель диска: Sin-Drome Records.LTD/Canada/
Аудио кодек: APE
Тип рипа: image+.cue
Битрейт аудио: lossless
Продолжительность: 00:34:45
Трэклист:
1.Special to me
2.My flame
3.Love won't wait
4.Can't say goodbye
5.Come to me
6.What you won't do for love
7.Kalimba song
8.Take me back to then
9.Down for the third time
Доп. информация: Bobby Caldwell-vocals,synthesizers,guitars,bass.
Рип из личного архива.
Exact Audio Copy V0.99 prebeta 4 from 23. January 2008

Отчёт EAC об извлечении, выполненном 12. июня 2010, 13:30

Bobby Caldwell / What You Won't Do For Love

Дисковод: _NEC DVD_RW ND-2510A Adapter: 1 ID: 0

Режим чтения : Достоверность
Использование точного потока : Да
Отключение кэша аудио : Да
Использование указателей C2 : Нет

Коррекция смещения при чтении : 48
Способность читать области Lead-in и Lead-out : Нет
Заполнение пропущенных сэмплов тишиной : Да
Удаление блоков с тишиной в начале и конце : Нет
При вычислениях CRC использовались нулевые сэмплы : Да
Интерфейс : Установленный внешний ASPI-интерфейс

Выходной формат : Внутренние WAV-операции
Формат сэмплов : 44.100 Гц; 16 бит; стерео

TOC извлечённого CD

Трек | Старт | Длительность | Начальный сектор | Конечный сектор
---------------------------------------------------------------------
1 | 0:00.00 | 3:35.00 | 0 | 16124
2 | 3:35.00 | 4:16.05 | 16125 | 35329
3 | 7:51.05 | 4:12.55 | 35330 | 54284
4 | 12:03.60 | 5:07.60 | 54285 | 77369
5 | 17:11.45 | 2:57.02 | 77370 | 90646
6 | 20:08.47 | 4:50.38 | 90647 | 112434
7 | 24:59.10 | 1:23.10 | 112435 | 118669
8 | 26:22.20 | 3:32.35 | 118670 | 134604
9 | 29:54.55 | 4:50.35 | 134605 | 156389

Характеристики диапазона извлечения и сообщения об ошибках

Выбранный диапазон

Имя файла E:\ПРОЕКТ\Bobby Caldwell-What You Won't Do For Love 1978\Bobby Caldwell - What You Won't Do For Love.wav

Пиковый уровень 100.0 %
Качество диапазона 100.0 %
CRC теста 5D8A91E4
CRC копии 5D8A91E4
Копирование... OK

Ошибок не произошло

AccurateRip: сводка

Трек 1 нет в базе данных
Трек 2 нет в базе данных
Трек 3 нет в базе данных
Трек 4 нет в базе данных
Трек 5 нет в базе данных
Трек 6 нет в базе данных
Трек 7 нет в базе данных
Трек 8 нет в базе данных
Трек 9 нет в базе данных

Ни одного трека нет в базе AccurateRip

Конец отчёта


Трекер:  [ 29-Янв-2012 07:40 ]

  

Скачать .torrent

Размер .torrent файла 15 KB


Размер: 190 MB
Хэш (hash) релиза: a21f21c52b177dacf0125efcd6c9d0dd83cd0259

Еще никто не оставлял запись к записи скачать торрент Bobby Caldwell - What You Wont Do For Love - 1978, APE . Будь первым!

!Обратная связь