Скачать через торрент музыку Bobby Caldwell- Cat On The Hat - 1980, APE бесплатно без регистрации torrent

Если у вас наблюдаются проблемы со скриншотами, переходом по ссылками, скачиванием торрентов - проблемы в блокировщике рекламы AdBlock. #хорошегоДня!


Статистика раздачи
Размер:  174 MB   |    Зарегистрирован:  5 лет 8 месяцев   |    .torrent скачан:  26 раз   |   
Раздают:  1  
   
Загрузка...
 
Автор Сообщение

Umakiro

avatar Umakiro


Bobby Caldwell- Cat On The Hat

Жанр: Smooth-Jazz,Vocal
Год выпуска диска: 1980
Производитель диска: Polydor /Japan/
Аудио кодек: APE
Тип рипа: image+.cue
Битрейт аудио: lossless
Продолжительность: 00:32:26
Трэклист:
1.Coming Down From Love
2.Wrong Or Right
3.To Know What You've Got
4.You Promised Me
5.It's Over
6.Open Your Eyes
7.Mother Of Creation
8.I Don't Want To Lose Your Love
Доп. информация: Bobby Caldwell-vocal

Рип из личного архива.
Exact Audio Copy V0.99 prebeta 4 from 23. January 2008

Отчёт EAC об извлечении, выполненном 30. мая 2010, 18:49

Bobby Caldwell / Cat In The Hat

Дисковод: _NEC DVD_RW ND-2510A Adapter: 1 ID: 0

Режим чтения : Достоверность
Использование точного потока : Да
Отключение кэша аудио : Да
Использование указателей C2 : Нет

Коррекция смещения при чтении : 48
Способность читать области Lead-in и Lead-out : Нет
Заполнение пропущенных сэмплов тишиной : Да
Удаление блоков с тишиной в начале и конце : Нет
При вычислениях CRC использовались нулевые сэмплы : Да
Интерфейс : Установленный внешний ASPI-интерфейс

Выходной формат : Внутренние WAV-операции
Формат сэмплов : 44.100 Гц; 16 бит; стерео

TOC извлечённого CD

Трек | Старт | Длительность | Начальный сектор | Конечный сектор
---------------------------------------------------------------------
1 | 0:00.37 | 4:02.33 | 37 | 18219
2 | 4:02.70 | 4:57.00 | 18220 | 40494
3 | 8:59.70 | 3:07.30 | 40495 | 54549
4 | 12:07.25 | 4:01.50 | 54550 | 72674
5 | 16:09.00 | 2:56.37 | 72675 | 85911
6 | 19:05.37 | 3:45.25 | 85912 | 102811
7 | 22:50.62 | 5:05.45 | 102812 | 125731
8 | 27:56.32 | 4:30.00 | 125732 | 145981

Характеристики диапазона извлечения и сообщения об ошибках

Выбранный диапазон

Имя файла E:\ПРОЕКТ\Bobby Caldwell-Cat in the hat 1980\Bobby Caldwell - Cat In The Hat.wav

Пиковый уровень 98.3 %
Качество диапазона 100.0 %
CRC теста A8C21BCD
CRC копии A8C21BCD
Копирование... OK

Ошибок не произошло

AccurateRip: сводка

Трек 1 нет в базе данных
Трек 2 нет в базе данных
Трек 3 нет в базе данных
Трек 4 нет в базе данных
Трек 5 нет в базе данных
Трек 6 нет в базе данных
Трек 7 нет в базе данных
Трек 8 нет в базе данных

Ни одного трека нет в базе AccurateRip

Конец отчёта


Трекер:  [ 29-Янв-2012 07:39 ]

  

Скачать .torrent

Размер .torrent файла 14 KB


Размер: 174 MB
Хэш (hash) релиза: 980e7b36f139b1ea17fd35ada48f833ffe06276d

Еще никто не оставлял запись к записи скачать торрент Bobby Caldwell- Cat On The Hat - 1980, APE . Будь первым!

!Обратная связь