Скачать через торрент музыку Chuck Mangione - Children of Sanchez - 1978, APE бесплатно без регистрации torrent

Если у вас наблюдаются проблемы со скриншотами, переходом по ссылками, скачиванием торрентов - проблемы в блокировщике рекламы AdBlock. #хорошегоДня!


Статистика раздачи
Размер:  428 MB   |    Зарегистрирован:  5 лет 8 месяцев   |    .torrent скачан:  38 раз   |   
Раздают:  1  
   
Загрузка...
 
Автор Сообщение

Umakiro

avatar Umakiro


CHUCK MANGIONE - Children of Sanchez
Жанр: Latin, Crossover, Smooth jazz
Год издания LP: 1978
Страна: USA
Производитель диска: Germany, A&M, 396 700-2, (1987)
Аудио кодек: APE (*.ape)
Тип рипа: image+.cue
Битрейт аудио: lossless
Продолжительность: 84:32
Источник (релизер): собственный прошлогодний рип
Наличие сканов в содержимом раздачи: да
Tracklisting:

CD I:
1 Children Of Sanchez Overture (14:07)
2 Lullabye (3:48)
3 Fanfare (1:05)
4 Pilgrimage (Part 1) (2:57)
5 Pilgrimage (Part 2) (2:37)
6 Consuelo's Love Theme (17:04)

CD II:
1 Hot Consuelo (4:01)
2 Death Scene (4:42)
3 Market Place (3:08)
4 Echano (2:37)
5 Bellavia (3:15)
6 Lullabye (3:37)
7 Medley (8:20)
8 B'bye (8:27)
9 Children Of Sanchez Finale (3:02)
Thanks to the Latin-inflected title track, Children of Sanchez became another huge hit for Chuck Mangione. The title song even earned him a Grammy for Best Pop Instrumental Performance, and serious jazz listeners will spot a problem with that award — it was for pop, not jazz. That, of course, is an accurate assessment of Mangione's music, since there isn't much improvisation on the album at all. Instead, there's a selection of Spanish and Latin-flavored instrumentals, arranged as if to give the impression that the album is a song cycle. If so, it's a song cycle/concept album that doesn't go anywhere. Nevertheless, there's enough pleasant music here to satisfy fans of his pop stylings. (all music com)
 
Exact Audio Copy V0.99 prebeta 4 from 23. January 2008EAC extraction logfile from 9. April 2009, 0:15

Chuck Mangione / Children Of Sanchez - CD1

Used drive : PIONEER DVD-RW DVR-105 Adapter: 0 ID: 1

Read mode : SecureUtilize accurate stream : YesDefeat audio cache : YesMake use of C2 pointers : No

Read offset correction : 48Overread into Lead-In and Lead-Out : YesFill up missing offset samples with silence : YesDelete leading and trailing silent blocks : NoNull samples used in CRC calculations : YesUsed interface : Installed external ASPI interface

Used output format : Monkey's Audio Lossless EncoderSelected bitrate : High Lossless CompressionQuality : HighAdd ID3 tag : YesCommand line compressor : C:\Program Files\Monkey's Audio\Monkey's Audio.exe

TOC of the extracted CD

Track | Start | Length | Start sector | End sector --------------------------------------------------------- 1 | 0:00.33 | 14:18.20 | 33 | 64402 2 | 14:18.53 | 3:55.17 | 64403 | 82044 3 | 18:13.70 | 1:09.73 | 82045 | 87292 4 | 19:23.68 | 3:04.45 | 87293 | 101137 5 | 22:28.38 | 2:44.70 | 101138 | 113507 6 | 25:13.33 | 17:03.25 | 113508 | 190257

Range status and errors

Selected range

Filename \\.PSF\Home\Desktop\ RIP\Chuck Mangione - Children Of Sanchez - CD1\Chuck Mangione - Children Of Sanchez - CD1.wav

Peak level 100.0 % Range quality 100.0 % Test CRC EAB2B096 Copy CRC EAB2B096 Copy OK

No errors occurred

AccurateRip summary

Track 1 accurately ripped (confidence 7) [76E45B70]Track 2 accurately ripped (confidence 6) [645591E6]Track 3 accurately ripped (confidence 6) [E96CE786]Track 4 accurately ripped (confidence 6) [95CFA9A6]Track 5 accurately ripped (confidence 6) [44803FC1]Track 6 accurately ripped (confidence 6) [943F2129]

All tracks accurately ripped

End of status report



Exact Audio Copy V0.99 prebeta 4 from 23. January 2008

EAC extraction logfile from 9. April 2009, 1:23

Chuck Mangione / Chuck Mangione - Children Of Sanchez - CD2

Used drive : PIONEER DVD-RW DVR-105 Adapter: 0 ID: 1

Read mode : SecureUtilize accurate stream : YesDefeat audio cache : YesMake use of C2 pointers : No

Read offset correction : 48Overread into Lead-In and Lead-Out : YesFill up missing offset samples with silence : YesDelete leading and trailing silent blocks : NoNull samples used in CRC calculations : YesUsed interface : Installed external ASPI interface

Used output format : Monkey's Audio Lossless EncoderSelected bitrate : High Lossless CompressionQuality : HighAdd ID3 tag : YesCommand line compressor : C:\Program Files\Monkey's Audio\Monkey's Audio.exe

TOC of the extracted CD

Track | Start | Length | Start sector | End sector --------------------------------------------------------- 1 | 0:00.32 | 4:11.15 | 32 | 18871 2 | 4:11.47 | 4:51.25 | 18872 | 40721 3 | 9:02.72 | 3:16.25 | 40722 | 55446 4 | 12:19.22 | 2:47.73 | 55447 | 68044 5 | 15:07.20 | 3:22.62 | 68045 | 83256 6 | 18:30.07 | 3:45.13 | 83257 | 100144 7 | 22:15.20 | 8:26.32 | 100145 | 138126 8 | 30:41.52 | 8:33.25 | 138127 | 176626 9 | 39:15.02 | 3:05.55 | 176627 | 190556

Range status and errors

Selected range

Filename \\.PSF\Home\Desktop\ RIP\Chuck Mangione - Children Of Sanchez - CD2\Chuck Mangione - Chuck Mangione - Children Of Sanchez - CD2.wav

Peak level 100.0 % Range quality 100.0 % Test CRC BE10B874 Copy CRC BE10B874 Copy OK

No errors occurred

AccurateRip summary

Track 1 accurately ripped (confidence 7) [A885AC31]Track 2 accurately ripped (confidence 7) [74A4790B]Track 3 accurately ripped (confidence 7) [345B8830]Track 4 accurately ripped (confidence 7) [40DF50D2]Track 5 accurately ripped (confidence 7) [7324C38B]Track 6 accurately ripped (confidence 7) [25EA8C8F]Track 7 accurately ripped (confidence 6) [3E412E32]Track 8 accurately ripped (confidence 7) [337DF4DE]Track 9 accurately ripped (confidence 7) [57BB41C4]

All tracks accurately ripped

End of status report
 
REM GENRE JazzREM DATE 1977REM DISCID 4109E806REM COMMENT "ExactAudioCopy v0.99pb4"CATALOG 0042282928726PERFORMER "Chuck Mangione"TITLE "Children Of Sanchez - CD1"FILE "Chuck Mangione - Children Of Sanchez - CD1.ape" WAVE TRACK 01 AUDIO TITLE "Children Of Sanchez Overture" PERFORMER "Chuck Mangione" INDEX 00 00:00:00 INDEX 01 00:00:33 TRACK 02 AUDIO TITLE "Lullabye" PERFORMER "Chuck Mangione" INDEX 00 14:11:58 INDEX 01 14:18:53 TRACK 03 AUDIO TITLE "Fanfare" PERFORMER "Chuck Mangione" INDEX 00 18:10:08 INDEX 01 18:13:70 TRACK 04 AUDIO TITLE "Pilgrimage (Part I)" PERFORMER "Chuck Mangione" INDEX 00 19:21:33 INDEX 01 19:23:68 TRACK 05 AUDIO TITLE "Pilgrimage (Part II)" PERFORMER "Chuck Mangione" INDEX 00 22:21:20 INDEX 01 22:28:38 TRACK 06 AUDIO TITLE "Consuelo's Love Theme" PERFORMER "Chuck Mangione" INDEX 00 25:07:20 INDEX 01 25:13:33



REM GENRE JazzREM DATE 1978REM DISCID 6B09EC09REM COMMENT "ExactAudioCopy v0.99pb4"CATALOG 0042282928825PERFORMER "Chuck Mangione"TITLE "Chuck Mangione - Children Of Sanchez - CD2"FILE "Chuck Mangione - Chuck Mangione - Children Of Sanchez - CD2.ape" WAVE TRACK 01 AUDIO TITLE "Hot Consuelo" PERFORMER "Chuck Mangione" INDEX 00 00:00:00 INDEX 01 00:00:32 TRACK 02 AUDIO TITLE "Death Scene" PERFORMER "Chuck Mangione" INDEX 00 04:05:32 INDEX 01 04:11:47 TRACK 03 AUDIO TITLE "Market Place" PERFORMER "Chuck Mangione" INDEX 00 08:56:45 INDEX 01 09:02:72 TRACK 04 AUDIO TITLE "Echano" PERFORMER "Chuck Mangione" INDEX 00 12:12:32 INDEX 01 12:19:22 TRACK 05 AUDIO TITLE "Bellavia" PERFORMER "Chuck Mangione" INDEX 00 15:01:15 INDEX 01 15:07:20 TRACK 06 AUDIO TITLE "Lullabye" PERFORMER "Chuck Mangione" INDEX 00 18:23:62 INDEX 01 18:30:07 TRACK 07 AUDIO TITLE "Medley" PERFORMER "Chuck Mangione" INDEX 00 22:09:57 INDEX 01 22:15:20 TRACK 08 AUDIO TITLE "B'Bye" PERFORMER "Chuck Mangione" INDEX 00 30:34:72 INDEX 01 30:41:52 TRACK 09 AUDIO TITLE "Children Of Sanchez Finale" PERFORMER "Chuck Mangione" INDEX 00 39:09:70 INDEX 01 39:15:02

Релиз


Трекер:  [ 29-Янв-2012 07:38 ]

  

Скачать .torrent

Размер .torrent файла 35 KB


Размер: 428 MB
Хэш (hash) релиза: c975225624a9928b2fd89d28cfbeca19e7348d31

Еще никто не оставлял запись к записи скачать торрент Chuck Mangione - Children of Sanchez - 1978, APE . Будь первым!

!Обратная связь