Скачать через торрент музыку VA - Jazz And 80s - Part Three - 2009, FLAC бесплатно без регистрации torrent

Если у вас наблюдаются проблемы со скриншотами, переходом по ссылками, скачиванием торрентов - проблемы в блокировщике рекламы AdBlock. #хорошегоДня!


Статистика раздачи
Размер:  346 MB   |    Зарегистрирован:  5 лет 8 месяцев   |    .torrent скачан:  41 раз   |   
Раздают:  1  
   
Загрузка...
 
Автор Сообщение

Umakiro

avatar Umakiro


Jazz And '80s - Part Three

Жанр: Smooth Jazz
Страна-производитель диска: Argentina
Год издания диска: 2009
Издатель (лейбл): PMB Music / Music Brokers
Номер по каталогу: MBB 9918
Аудиокодек: FLAC (*.flac)
Тип рипа: image+.cue
Битрейт аудио: lossless
Продолжительность: 50:22
Источник (релизер): LosslessClub
Наличие сканов в содержимом раздачи: да
Треклист:
01. Karen Souza (U2) - New Year's Day (03:49)
02. Cassandra Beck (Van Halen) - Jump (03:29)
03. The Cooltrane Quartet (The Power Station) - Some Like It Hot (04:42)
04. Scubba feat. Lizette (Michael Jackson) - Beat It (03:54)
05. Anakelly (Duran Duran) - Skin Trade (04:51)
06. The Moleskins (Sade) - Is It A Crime? (04:18)
07. Jazzystics feat. Karen Souza (Kim Carnes) - Bette Davis Eyes (03:59)
08. 48th St. Collective (Nena) - 99 Red Balloons (03:53)
09. Les Crossaders feat. Julie Benson (The Housemartins) - Think For A Minute (04:09)
10. Eve St. Jones (Swing Out Sister) - Breakout (04:09)
11. Urselle (Johnny Hates Jazz) - Shattered Dreams (05:26)
12. Stella Starlight Trio (The Haman League) - Don't You Want Me (03:38)
 
Exact Audio Copy V0.99 prebeta 5 from 4. May 2009

EAC extraction logfile from 8. April 2011, 4:22

Various Artists / Jazz and '80s Part III - The Coolest And Sexiest Songbook Of The Eighties

Used drive : ASUS DRW-2014L1 Adapter: 4 ID: 0

Read mode : SecureUtilize accurate stream : YesDefeat audio cache : YesMake use of C2 pointers : No

Read offset correction : 6Overread into Lead-In and Lead-Out : NoFill up missing offset samples with silence : YesDelete leading and trailing silent blocks : NoNull samples used in CRC calculations : YesUsed interface : Native Win32 interface for Win NT & 2000

Used output format : User Defined EncoderSelected bitrate : 1024 kBit/sQuality : HighAdd ID3 tag : NoCommand line compressor : C:\Program Files\Exact Audio Copy\FLAC\FLAC.EXEAdditional command line options : -8 -V -T "artist=%a" -T "title=%t" -T "album=%g" -T "date=%y" -T "tracknumber=%n" -T "genre=%m" -T "comment=EAC FLAC -8" %s

TOC of the extracted CD

Track | Start | Length | Start sector | End sector --------------------------------------------------------- 1 | 0:00.00 | 3:49.43 | 0 | 17217 2 | 3:49.43 | 3:29.08 | 17218 | 32900 3 | 7:18.51 | 4:42.13 | 32901 | 54063 4 | 12:00.64 | 3:54.15 | 54064 | 71628 5 | 15:55.04 | 4:51.02 | 71629 | 93455 6 | 20:46.06 | 4:18.46 | 93456 | 112851 7 | 25:04.52 | 3:59.49 | 112852 | 130825 8 | 29:04.26 | 3:53.65 | 130826 | 148365 9 | 32:58.16 | 4:09.48 | 148366 | 167088 10 | 37:07.64 | 4:09.55 | 167089 | 185818 11 | 41:17.44 | 5:26.61 | 185819 | 210329 12 | 46:44.30 | 3:38.03 | 210330 | 226682

Range status and errors

Selected range

Filename F:\CDDA RIP\Jazz and '80s Part III - The Coolest And Sexiest Songbook Of The Eighties (2009).wav

Peak level 98.9 % Range quality 99.9 % Test CRC 75C46DEC Copy CRC 75C46DEC Copy OK

No errors occurred

AccurateRip summary

Track 1 accurately ripped (confidence 5) [3CEF5C14]Track 2 accurately ripped (confidence 5) [B45672D4]Track 3 accurately ripped (confidence 5) [E4824679]Track 4 accurately ripped (confidence 5) [CFC589F9]Track 5 accurately ripped (confidence 5) [EEE4ADAB]Track 6 accurately ripped (confidence 5) [58850AAC]Track 7 accurately ripped (confidence 5) [24EFDAD1]Track 8 accurately ripped (confidence 5) [70FFDF86]Track 9 accurately ripped (confidence 5) [331C39B0]Track 10 accurately ripped (confidence 4) [AB4288C6]Track 11 accurately ripped (confidence 4) [B82CF718]Track 12 accurately ripped (confidence 4) [942C044B]

All tracks accurately ripped

End of status report


Трекер:  [ 29-Янв-2012 07:37 ]

  

Скачать .torrent

Размер .torrent файла 14 KB


Размер: 346 MB
Хэш (hash) релиза: 6202a652d3cad7563ed09a162f68856847160e45

Еще никто не оставлял запись к записи скачать торрент VA - Jazz And 80s - Part Three - 2009, FLAC . Будь первым!

!Обратная связь