Скачать через торрент музыку Chris Standring - Groovalicious - 2003, FLAC бесплатно без регистрации torrent

Если у вас наблюдаются проблемы со скриншотами, переходом по ссылками, скачиванием торрентов - проблемы в блокировщике рекламы AdBlock. #хорошегоДня!


Статистика раздачи
Размер:  440 MB   |    Зарегистрирован:  5 лет 8 месяцев   |    .torrent скачан:  28 раз   |   
Раздают:  1  
   
Загрузка...
 
Автор Сообщение

Umakiro

avatar Umakiro


Chris Standring - Groovalicious

Жанр: Smooth Jazz
Год выпуска диска: 2003
Производитель диска: Россия
Аудио кодек: FLAC
Тип рипа: tracks+.cue
Битрейт аудио: lossless
Продолжительность: 65:36
Трэклист:
1. Ain’t Mad Atcha 5:17
2. Miss Downtown Sugar Girl 4:47
3. All In Good Time 5:43
4. Say What?! 4:29
5. Hypnotize 4:53
6. Gentle Persuasion 5:54
7. Come Back Home 3:40
8. Fat Tuesday 4:16
9. Snowfall 4:12
10. Groovalicious 5:48
11. 11 Ray Of Sunlight 5:20
12. Shadow Dance 5:24
13. Do What You Do 5:42
Exact Audio Copy V0.99 prebeta 5 from 4. May 2009

EAC extraction logfile from 6. August 2009, 8:19

Chris Standring / Groovalicious

Used drive : HL-DT-STDVD-RAM GSA-H55N Adapter: 4 ID: 0

Read mode : Secure
Utilize accurate stream : Yes
Defeat audio cache : Yes
Make use of C2 pointers : No

Read offset correction : 102
Overread into Lead-In and Lead-Out : No
Fill up missing offset samples with silence : Yes
Delete leading and trailing silent blocks : No
Null samples used in CRC calculations : Yes
Used interface : Native Win32 interface for Win NT & 2000
Gap handling : Appended to previous track

Used output format : User Defined Encoder
Selected bitrate : 768 kBit/s
Quality : High
Add ID3 tag : No
Command line compressor : C:\Program Files\Exact Audio Copy\FLAC\FLAC.EXE
Additional command line options : -8 -V -T "ARTIST=%a" -T "TITLE=%t" -T "ALBUM=%g" -T "DATE=%y" -T "TRACKNUMBER=%n" -T "GENRE=%m" -T "COMMENT=%e" %s -o %d

TOC of the extracted CD

Track | Start | Length | Start sector | End sector
---------------------------------------------------------
1 | 0:00.00 | 5:17.32 | 0 | 23806
2 | 5:17.32 | 4:49.43 | 23807 | 45524
3 | 10:07.00 | 5:43.30 | 45525 | 71279
4 | 15:50.30 | 4:29.30 | 71280 | 91484
5 | 20:19.60 | 4:53.30 | 91485 | 113489
6 | 25:13.15 | 5:54.65 | 113490 | 140104
7 | 31:08.05 | 3:40.12 | 140105 | 156616
8 | 34:48.17 | 4:16.45 | 156617 | 175861
9 | 39:04.62 | 4:12.48 | 175862 | 194809
10 | 43:17.35 | 5:48.17 | 194810 | 220926
11 | 49:05.52 | 5:20.15 | 220927 | 244941
12 | 54:25.67 | 5:24.18 | 244942 | 269259
13 | 59:50.10 | 5:44.27 | 269260 | 295086

Track 1

Filename D:\Олег\01 - I Ain't Mad Atcha.wav

Pre-gap length 0:00:02.00

Peak level 98.8 %
Track quality 99.9 %
Test CRC EA968AF1
Copy CRC EA968AF1
Copy OK

Track 2

Filename D:\Олег\02 - Miss Downtown Sugar Girl.wav

Peak level 98.8 %
Track quality 99.9 %
Test CRC CD199CE3
Copy CRC CD199CE3
Copy OK

Track 3

Filename D:\Олег\03 - All In Good Time.wav

Pre-gap length 0:00:01.50

Peak level 98.6 %
Track quality 100.0 %
Test CRC 217BEEEB
Copy CRC 217BEEEB
Copy OK

Track 4

Filename D:\Олег\04 - Say What !.wav

Peak level 98.8 %
Track quality 100.0 %
Test CRC 5D12C411
Copy CRC 5D12C411
Copy OK

Track 5

Filename D:\Олег\05 - Hypnotize.wav

Peak level 98.8 %
Track quality 100.0 %
Test CRC 3DD8ADFC
Copy CRC 3DD8ADFC
Copy OK

Track 6

Filename D:\Олег\06 - Gentle Persuasion.wav

Peak level 98.8 %
Track quality 100.0 %
Test CRC B0A8C4AA
Copy CRC B0A8C4AA
Copy OK

Track 7

Filename D:\Олег\07 - Come Back Home.wav

Peak level 98.8 %
Track quality 99.9 %
Test CRC 770A496D
Copy CRC 770A496D
Copy OK

Track 8

Filename D:\Олег\08 - Fat Tuesday.wav

Peak level 98.6 %
Track quality 100.0 %
Test CRC E8A7BE21
Copy CRC E8A7BE21
Copy OK

Track 9

Filename D:\Олег\09 - Snowfall.wav

Peak level 98.8 %
Track quality 100.0 %
Test CRC 02A1E223
Copy CRC 02A1E223
Copy OK

Track 10

Filename D:\Олег\10 - Groovalicious.wav

Peak level 98.8 %
Track quality 100.0 %
Test CRC FA750DB5
Copy CRC FA750DB5
Copy OK

Track 11

Filename D:\Олег\11 - Ray Of Sunlight.wav

Peak level 98.8 %
Track quality 100.0 %
Test CRC CE3A50AC
Copy CRC CE3A50AC
Copy OK

Track 12

Filename D:\Олег\12 - Shadow Dance.wav

Peak level 98.8 %
Track quality 100.0 %
Test CRC 5AFA120C
Copy CRC 5AFA120C
Copy OK

Track 13

Filename D:\Олег\13 - Do What You Do.wav

Peak level 98.4 %
Track quality 99.9 %
Test CRC 93BF2CA2
Copy CRC 93BF2CA2
Copy OK

No errors occurred

End of status report


Трекер:  [ 29-Янв-2012 07:37 ]

  

Скачать .torrent

Размер .torrent файла 19 KB


Размер: 440 MB
Хэш (hash) релиза: 91767b45962540cb23a3a28104af4a842e3abf23

Еще никто не оставлял запись к записи скачать торрент Chris Standring - Groovalicious - 2003, FLAC . Будь первым!

!Обратная связь