Скачать через торрент музыку Lightnin Hopkins - Shake It Baby - 1988, бесплатно без регистрации torrent

Если у вас наблюдаются проблемы со скриншотами, переходом по ссылками, скачиванием торрентов - проблемы в блокировщике рекламы AdBlock. #хорошегоДня!


Статистика раздачи
Размер:  275 MB   |    Зарегистрирован:  5 лет 8 месяцев   |    .torrent скачан:  40 раз   |   
Раздают:  1  
   
Загрузка...
 
Автор Сообщение

Umakiro

avatar Umakiro


Lightnin' Hopkins / Shake It Baby

Жанр: Blues / Texas Blues
Год издания диска: 1988
Издатель (лейбл): Vogue
Номер по каталогу: 600187
Страна: USA
Аудиокодек: FLAC (*.flac)
Тип рипа: tracks+.cue
Битрейт аудио: lossless
Продолжительность: 47:08
Источник (релизер): Источник - Вата, релизер - kodonosor
Наличие сканов в содержимом раздачи: да
Треклист:
1. Big Car Blues 3:14
2. Ball of Twine 3:20
3. Coffee House Blues 2:05
4. Stool Pigeon Blues 2:57
5. I'll Be Gone 5:01
6. Shining Moon 4:01
7. Shake It Baby 4:51
8. Goin' Back Home 4:51
9. Good Times 4:11
10. What Did I Say 2:22
11. Don't Wake Me 4:10
12. Talk of the Town 2:35
13. Shaggy Dad 2:42
 
Exact Audio Copy V1.0 beta 1 from 15. November 2010

EAC extraction logfile from 24. April 2011, 18:56

LIGHTNIN' HOPKINS / SHAKE IT BABY

Used drive : PIONEER DVD RW DVR-108 Adapter: 0 ID: 0

Read mode : SecureUtilize accurate stream : YesDefeat audio cache : YesMake use of C2 pointers : No

Read offset correction : 48Overread into Lead-In and Lead-Out : NoFill up missing offset samples with silence : YesDelete leading and trailing silent blocks : NoNull samples used in CRC calculations : YesUsed interface : Native Win32 interface for Win NT & 2000Gap handling : Appended to previous track

Used output format : User Defined EncoderSelected bitrate : 896 kBit/sQuality : HighAdd ID3 tag : NoCommand line compressor : C:\Program Files\Exact Audio Copy\Flac\flac.exeAdditional command line options : -V -8 -T "artist=%a" -T "title=%t" -T "album=%g" -T "date=%y" -T "tracknumber=%n" -T "genre=%m" %s

TOC of the extracted CD

Track | Start | Length | Start sector | End sector --------------------------------------------------------- 1 | 0:00.33 | 3:16.27 | 33 | 14759 2 | 3:16.60 | 3:20.48 | 14760 | 29807 3 | 6:37.33 | 2:05.32 | 29808 | 39214 4 | 8:42.65 | 2:59.60 | 39215 | 52699 5 | 11:42.50 | 5:00.60 | 52700 | 75259 6 | 16:43.35 | 4:02.68 | 75260 | 93477 7 | 20:46.28 | 4:53.17 | 93478 | 115469 8 | 25:39.45 | 4:53.65 | 115470 | 137509 9 | 30:33.35 | 4:12.43 | 137510 | 156452 10 | 34:46.03 | 2:23.60 | 156453 | 167237 11 | 37:09.63 | 4:41.35 | 167238 | 188347 12 | 41:51.23 | 2:36.10 | 188348 | 200057 13 | 44:27.33 | 2:40.50 | 200058 | 212107

Track 1

Filename D:\Flac EAC\LIGHTNIN' HOPKINS - SHAKE IT BABY - 1965\01 - Big car blues.wav

Pre-gap length 0:00:02.33

Peak level 99.7 % Extraction speed 1.5 X Track quality 100.0 % Test CRC 06043EF8 Copy CRC 06043EF8 Accurately ripped (confidence 1) [05D5B7A2] Copy OK

Track 2

Filename D:\Flac EAC\LIGHTNIN' HOPKINS - SHAKE IT BABY - 1965\02 - Ball of twine.wav

Pre-gap length 0:00:01.67

Peak level 76.3 % Extraction speed 1.6 X Track quality 100.0 % Test CRC 5D87AB77 Copy CRC 5D87AB77 Accurately ripped (confidence 1) [6FCA02A9] Copy OK

Track 3

Filename D:\Flac EAC\LIGHTNIN' HOPKINS - SHAKE IT BABY - 1965\03 - Coffee house blues.wav

Pre-gap length 0:00:01.40

Peak level 71.3 % Extraction speed 1.5 X Track quality 100.0 % Test CRC E68E7ECA Copy CRC E68E7ECA Accurately ripped (confidence 1) [56504E8C] Copy OK

Track 4

Filename D:\Flac EAC\LIGHTNIN' HOPKINS - SHAKE IT BABY - 1965\04 - Stool Pigeon blues.wav

Pre-gap length 0:00:03.45

Peak level 81.4 % Extraction speed 1.8 X Track quality 100.0 % Test CRC 73B39630 Copy CRC 73B39630 Accurately ripped (confidence 1) [86201D1D] Copy OK

Track 5

Filename D:\Flac EAC\LIGHTNIN' HOPKINS - SHAKE IT BABY - 1965\05 - I'll be gone.wav

Pre-gap length 0:00:01.67

Peak level 92.1 % Extraction speed 2.0 X Track quality 100.0 % Test CRC E99A838F Copy CRC E99A838F Accurately ripped (confidence 1) [376208AC] Copy OK

Track 6

Filename D:\Flac EAC\LIGHTNIN' HOPKINS - SHAKE IT BABY - 1965\06 - Shining moon.wav

Pre-gap length 0:00:02.32

Peak level 91.7 % Extraction speed 2.1 X Track quality 100.0 % Test CRC 6B55172C Copy CRC 6B55172C Accurately ripped (confidence 1) [E53C49CF] Copy OK

Track 7

Filename D:\Flac EAC\LIGHTNIN' HOPKINS - SHAKE IT BABY - 1965\07 - Shake it Baby.wav

Pre-gap length 0:00:02.20

Peak level 96.8 % Extraction speed 2.1 X Track quality 99.9 % Test CRC 7B00DB18 Copy CRC 7B00DB18 Accurately ripped (confidence 1) [41622A33] Copy OK

Track 8

Filename D:\Flac EAC\LIGHTNIN' HOPKINS - SHAKE IT BABY - 1965\08 - Goin' back homes.wav

Pre-gap length 0:00:02.57

Peak level 87.7 % Extraction speed 2.2 X Track quality 99.9 % Test CRC 15E5EC06 Copy CRC 15E5EC06 Accurately ripped (confidence 1) [98488EF5] Copy OK

Track 9

Filename D:\Flac EAC\LIGHTNIN' HOPKINS - SHAKE IT BABY - 1965\09 - Good times.wav

Pre-gap length 0:00:03.12

Peak level 95.5 % Extraction speed 2.5 X Track quality 100.0 % Test CRC ADC6A1BA Copy CRC ADC6A1BA Accurately ripped (confidence 1) [A53EF5A4] Copy OK

Track 10

Filename D:\Flac EAC\LIGHTNIN' HOPKINS - SHAKE IT BABY - 1965\10 - What did i say.wav

Pre-gap length 0:00:03.20

Peak level 75.2 % Extraction speed 1.9 X Track quality 99.9 % Test CRC 80E0D098 Copy CRC 80E0D098 Accurately ripped (confidence 1) [1F89D99E] Copy OK

Track 11

Filename D:\Flac EAC\LIGHTNIN' HOPKINS - SHAKE IT BABY - 1965\11 - Don't wake me.wav

Pre-gap length 0:00:02.23

Peak level 83.6 % Extraction speed 2.6 X Track quality 100.0 % Test CRC 4D16309A Copy CRC 4D16309A Accurately ripped (confidence 1) [BE6CFEBE] Copy OK

Track 12

Filename D:\Flac EAC\LIGHTNIN' HOPKINS - SHAKE IT BABY - 1965\12 - Talk of the town.wav

Pre-gap length 0:00:02.38

Peak level 88.7 % Extraction speed 2.6 X Track quality 100.0 % Test CRC 88446C0A Copy CRC 88446C0A Accurately ripped (confidence 1) [18CA8E00] Copy OK

Track 13

Filename D:\Flac EAC\LIGHTNIN' HOPKINS - SHAKE IT BABY - 1965\13 - Shaggy dad.wav

Pre-gap length 0:00:02.05

Peak level 90.4 % Extraction speed 2.6 X Track quality 100.0 % Test CRC 91536617 Copy CRC 91536617 Accurately ripped (confidence 1) [40C5998E] Copy OK

All tracks accurately ripped

No errors occurred

End of status report
 
REM GENRE BluesREM DATE 1965REM DISCID AC0B0C0DREM COMMENT "ExactAudioCopy v1.0b1"FILE "LIGHTNIN' HOPKINS - SHAKE IT BABY - 1965\01 - Big car blues.wav" WAVE TRACK 01 AUDIO PREGAP 00:00:33 INDEX 01 00:00:00 TRACK 02 AUDIO INDEX 00 03:14:35FILE "LIGHTNIN' HOPKINS - SHAKE IT BABY - 1965\02 - Ball of twine.wav" WAVE INDEX 01 00:00:00 TRACK 03 AUDIO INDEX 00 03:19:08FILE "LIGHTNIN' HOPKINS - SHAKE IT BABY - 1965\03 - Coffee house blues.wav" WAVE INDEX 01 00:00:00 TRACK 04 AUDIO INDEX 00 02:01:62FILE "LIGHTNIN' HOPKINS - SHAKE IT BABY - 1965\04 - Stool Pigeon blues.wav" WAVE INDEX 01 00:00:00 TRACK 05 AUDIO INDEX 00 02:57:68FILE "LIGHTNIN' HOPKINS - SHAKE IT BABY - 1965\05 - I'll be gone.wav" WAVE INDEX 01 00:00:00 TRACK 06 AUDIO INDEX 00 04:58:28FILE "LIGHTNIN' HOPKINS - SHAKE IT BABY - 1965\06 - Shining moon.wav" WAVE INDEX 01 00:00:00 TRACK 07 AUDIO INDEX 00 04:00:48FILE "LIGHTNIN' HOPKINS - SHAKE IT BABY - 1965\07 - Shake it Baby.wav" WAVE INDEX 01 00:00:00 TRACK 08 AUDIO INDEX 00 04:50:35FILE "LIGHTNIN' HOPKINS - SHAKE IT BABY - 1965\08 - Goin' back homes.wav" WAVE INDEX 01 00:00:00 TRACK 09 AUDIO INDEX 00 04:50:53FILE "LIGHTNIN' HOPKINS - SHAKE IT BABY - 1965\09 - Good times.wav" WAVE INDEX 01 00:00:00 TRACK 10 AUDIO INDEX 00 04:09:23FILE "LIGHTNIN' HOPKINS - SHAKE IT BABY - 1965\10 - What did i say.wav" WAVE INDEX 01 00:00:00 TRACK 11 AUDIO INDEX 00 02:21:37FILE "LIGHTNIN' HOPKINS - SHAKE IT BABY - 1965\11 - Don't wake me.wav" WAVE INDEX 01 00:00:00 TRACK 12 AUDIO INDEX 00 04:38:72FILE "LIGHTNIN' HOPKINS - SHAKE IT BABY - 1965\12 - Talk of the town.wav" WAVE INDEX 01 00:00:00 TRACK 13 AUDIO INDEX 00 02:34:05FILE "LIGHTNIN' HOPKINS - SHAKE IT BABY - 1965\13 - Shaggy dad.wav" WAVE INDEX 01 00:00:00
 
-----------------------

DON'T MODIFY THIS FILE

-----------------------

PERFORMER: auCDtect Task Manager, ver. 1.5.1RC3 build 1.5.1.4Copyright (c) 2008-2010 y-soft. All rights reservedhttp://y-soft.org

ANALYZER: auCDtect: CD records authenticity detector, version 0.8.2Copyright (c) 2004 Oleg Berngardt. All rights reserved.Copyright (c) 2004 Alexander Djourik. All rights reserved.

FILE: 13 - Shaggy dad.flac Size: 17034086 Hash: EC9BF55C0B9EA9990C6B7915CFED09CE Accuracy: -m0 Conclusion: CDDA 100% Signature: 7378247B4C0B6B07A32C81C9CCCF7A13B0E7F559FILE: 12 - Talk of the town.flac Size: 16437631 Hash: 34D64EC2ADD97F4D4891369B12455FF9 Accuracy: -m0 Conclusion: CDDA 100% Signature: 05BCD9C79BFC29062F41093E3FD9644BD677127EFILE: 11 - Don't wake me.flac Size: 29550859 Hash: 8CDF48AEAA38E978456D71BC0FBA7DE5 Accuracy: -m0 Conclusion: CDDA 100% Signature: 2B0C3C65466E3213AEC748A109AD82B0054CABA8FILE: 10 - What did i say.flac Size: 12879196 Hash: 7F86BB2A01EB2BACD0907040CB766910 Accuracy: -m0 Conclusion: CDDA 100% Signature: 6598A25629F6599196AD2A5E1F83DA3FADA3A4B2FILE: 09 - Good times.flac Size: 27350168 Hash: F28D28B5DD675C4B29F6FEABBEFFDDF5 Accuracy: -m0 Conclusion: CDDA 100% Signature: 728912D8380845F095346139E9090F3FAC2758E9FILE: 08 - Goin' back homes.flac Size: 29169033 Hash: A36101484EECD8338E52D8CF19BB0C10 Accuracy: -m0 Conclusion: CDDA 99% Signature: F5C3A38FF65669EE4F94AFAC66EE18CB081561E7FILE: 07 - Shake it Baby.flac Size: 33738545 Hash: E80361D980C1B17BBC426BADFA8D2AD7 Accuracy: -m0 Conclusion: CDDA 100% Signature: 66CCD1C0324684D2508DCE1070852DF4573BAAA1FILE: 06 - Shining moon.flac Size: 20489077 Hash: 81E3BFE07BB8EDD82643483DB44B05BA Accuracy: -m0 Conclusion: CDDA 100% Signature: C8D2F7AE226CC60E3EDF387F8CE36BD69BB22DF5FILE: 05 - I'll be gone.flac Size: 34666894 Hash: D0BE4E68424EFDB3DCE0AB873194D1BD Accuracy: -m0 Conclusion: CDDA 99% Signature: 543F6CE988C96DFFA2826EE244FA24B8E518A7BEFILE: 04 - Stool Pigeon blues.flac Size: 17531502 Hash: 5CF629B568860D8D74F79C47BDB8BDE7 Accuracy: -m0 Conclusion: CDDA 100% Signature: 95EBC5DFB0C120ECA942ECBDC29E2146F92D63A0FILE: 03 - Coffee house blues.flac Size: 11515447 Hash: 1264C925C63166C7057B84BA129A815F Accuracy: -m0 Conclusion: CDDA 100% Signature: 985273F8AA0FA7B472141290D97376DBEEBCFE5BFILE: 02 - Ball of twine.flac Size: 20688371 Hash: 1087D9CC6830E35BC4C8C9E4C29117DF Accuracy: -m0 Conclusion: CDDA 100% Signature: C55A1758F080D888702388BCA060E90EBC0AB7D8FILE: 01 - Big car blues.flac Size: 17481524 Hash: 78EEEAF35FCEFC22A550959518FA906C Accuracy: -m0 Conclusion: CDDA 100% Signature: AFE8E3CB9B9BA17BCA466D14A528AAE3E791431C
Доп. информация: Этот альбом был записан в течение тура, который Лайтнин совершил в Лос-Анджелес осенью 1965 г. И хотя Сэм "Лайтнин" Хопкинс - был одним из самых записываемых блюзменов, для меня каждый его диск - праздник! Насколько просто и гениально он играет блюз!
(Это издание достаточно редкое, поэтому комплект нормальных сканов не нашёл, но в раздаче имеются разного размера сканы обложек CD и оригинального LP. Также поместил в раздачу (corrected).cue-файл).

Приятного всем прослушивания.
Лайтнинг Хопкинс
Настоящее имя: Сэм Хопкинс (Sam Hopkins)
Родился: 15 марта, 1912 года в Сентервилле, Техас
Умер: 30 января, 1982 года в Хьюстоне, Техас
Жанр: блюз
Стили: Blues Revival, Acoustic Texas Blues, Electric Texas Blues
Инструменты: гитара, вокал, орган
Лэйблы: Collectables (16), Arhoolie (15), Original Blues Classics (7), Tradition (6), Prestige (6), Mainstream (5), Charly (5)

Сэм Хопкинс - один из последних великих исполнителей кантри-блюза, чья карьера простирается от 20-х до 80-х годов ушедшего столетия. На всем протяжении творческого пути Хопкинс никогда ощутимо не менял свой печальный Lone Star - саунд, который прекрасно иллюстрируется его акустической и элетрогитарой. Братья Хопкинса Джон Генри и Джоэл были также талантливыми блюзменами, но только Сэм стал настоящей звездой. В подростковом возрасте Сэм играл вместе с другой довоенной звездой, вокалистом Тексас'ом Александер (Texas Alexander), который был его кузеном. Хопкинс начал свою карьеру в техасских барах 20-х годов. Первым синглом, который принес Хопкинсу известность стала песня "Katie May", записанная 9 ноября 1946 года в Лос-Анжелесе вместе с пианистом Уилсоном "Тандер" Смит'ом (Wilson "Thunder" Smith). До 48-го года он активно записывался на студии Aladdin Records в Лос-Анжелесе и Хьюстоне, в частности, записав в этот период национальный R&b хит "Shotgun Blues". Такие хиты как "Short Haired Woman", "Abilene" и "Big Mama Jump" среди многих других жемчужин, записанных на студии Aladdin Records, уходят корнями к ранними техасскими блюзовыми традициям. После этого многие студии записывали Хопкинса как сольного исполнителя, так и в состве с маленькими ритм-секциями - Modern/RPM (его бескомпромиссный хит "Tim Moore's Farm", ставший в 1949 году R&B шлягером), Gold Star (где его хит "T-Model Blues" вышел в том же году), Sittin' in With ("Give Me Central 209" и "Coffee Blues" попали на высшие ступени национальных чартов в 1952-м), известные лэйблы Mercury и Decca, и в 1954-м замечательная серия на Herald, где Хопкинс блистательно играл на электо-гитаре в серии взрывных рок'н'роллов ("Lightnin's Boogie", "Lightnin's Special", потрясающей "Hopkins' Sky Hop" на фоне барабанщика Бена Тернера (Ben Turner) и басиста Доналда Кукса (Donald Cooks), чьи пальцы должно быть истекали кровью, такими обжигающими были ритмы). Но стиль Хопкинса был вероятно слишком провинциальным и старомодным для нового поколения рок'н'рольных энтузиастов. В 1959-м он вернулся на хьюстонскую сцену, почти забытый. К счастью, фольклорист Мак Маккормик (Mack McCormick) заново открыл гитариста, который олицетворял собой на тот момент образец фолк-блюз артиста - роль, которую Хопкинс был просто рожден играть. Первый значительный успех пришел к Хопкинсу только в 47 лет, когда фольклоритс-новатор Сэм Чартерс (Sam Charters) на студии Folkways Records спродюсировал и выпустил в 1959 его сольный альбом "The Roots Of Lightnin' Hopkins". В результате это помогло представить музыку Хопкинса широкой новой аудитории. Великолепная акустическая гитара и грубоватый, но выразительный голос сделали Хопкинса одним из наиболее популярных певцов послевоенного блюза. В 1967 он снял автобиографический фильм "The Blues Of Lightnin Hopkins", который завоевал премию "Золотой Хьюго" на кинофестивале в Чикаго. В 70-е годы Хопкинс выступал с концертами в США, Канаде, а в 1977 - в Европе, но по состоянию здоровья уже не мог выдерживать длительные нагрузки. Титул одного из самых значительных блюзовых певцов сохраняется за ним и по сей день. Сообразительность Хопкинса сделала замысловатые риффы буги более простыми, а его захватывающая способность импровизировать тексты песен применительно к конкретной ситуации принесла ему славу любимейшего блюзового трубадура.

(Спасибо сайту ololo.fm за предоставленную информацию).


Трекер:  [ 29-Янв-2012 05:24 ]

  

Скачать .torrent

Размер .torrent файла 12 KB


Размер: 275 MB
Хэш (hash) релиза: b68c9ac4a07c2f8380376949630867c2786e2f8c

Еще никто не оставлял запись к записи скачать торрент Lightnin Hopkins - Shake It Baby - 1988, . Будь первым!

!Обратная связь