Скачать через торрент музыку Big Gilson & Blues Dynamite - Puro Feeling - 2005, FLAC бесплатно без регистрации torrent

Если у вас наблюдаются проблемы со скриншотами, переходом по ссылками, скачиванием торрентов - проблемы в блокировщике рекламы AdBlock. #хорошегоДня!


Статистика раздачи
Размер:  426 MB   |    Зарегистрирован:  5 лет 8 месяцев   |    .torrent скачан:  29 раз   |   
Раздают:  1  
   
Загрузка...
 
Автор Сообщение

Umakiro

avatar Umakiro


Big Gilson & Blues Dynamite - Puro Feeling

Жанр: Blues
Год издания диска: 2005
Страна: Brasil
Аудио кодек: FLAC (*.flac)
Тип рипа: image+.cue
Битрейт аудио: lossless
Продолжительность: 00:55:31
Источник (релизер): dmitrych2
Наличие сканов в содержимом раздачи: paradies

Треклист:

01. Puro Feeling 03:51
02. Baby Please Don't Go 03:04
03. Fechada Pra Mim 05:18
04. The One and Only One 05:35
05. Let Me Be Free 05:18
06. 945/106 Blues 04:18
07. Mr. Freeze 04:10
08. Dog Face Baby 04:07
09. Nao Lembre de Chorar 03:40
10. Hey Now Baby 05:21
11. Lully 05:21
12. Panos y Planos 05:24
 
Exact Audio Copy V0.99 prebeta 4 from 23. January 2008

Отчёт EAC об извлечении, выполненном 20. января 2012, 18:19

Big Gilson / Puro Feeling

Дисковод: _NEC DV-5800C Adapter: 0 ID: 1

Режим чтения : ДостоверностьИспользование точного потока : ДаОтключение кэша аудио : ДаИспользование указателей C2 : Нет

Коррекция смещения при чтении : 12Способность читать области Lead-in и Lead-out : НетЗаполнение пропущенных сэмплов тишиной : ДаУдаление блоков с тишиной в начале и конце : НетПри вычислениях CRC использовались нулевые сэмплы : ДаИнтерфейс : Установленный внешний ASPI-интерфейс

Выходной формат : Пользовательский кодировщикВыбранный битрейт : 768 kBit/sКачество : ВысокийДобавление ID3-тэга : НетУтилита сжатия : C:\Program Files\Exact Audio Copy\Flac\flac.exeДополнительные параметры : -8 -V -T "ARTIST=%a" -T "TITLE=%t" -T "ALBUM=%g" -T "DATE=%y" -T "TRACKNUMBER=%n" -T "GENRE=%m" -T "COMMENT=www.blues.at.ua" -T "URL=www.blues.at.ua" %s -o %d

TOC извлечённого CD

Трек | Старт | Длительность | Начальный сектор | Конечный сектор --------------------------------------------------------------------- 1 | 0:00.00 | 3:51.40 | 0 | 17364 2 | 3:51.40 | 3:04.19 | 17365 | 31183 3 | 6:55.59 | 5:18.36 | 31184 | 55069 4 | 12:14.20 | 5:35.24 | 55070 | 80218 5 | 17:49.44 | 5:18.23 | 80219 | 104091 6 | 23:07.67 | 4:18.16 | 104092 | 123457 7 | 27:26.08 | 4:10.21 | 123458 | 142228 8 | 31:36.29 | 4:07.55 | 142229 | 160808 9 | 35:44.09 | 3:40.04 | 160809 | 177312 10 | 39:24.13 | 5:21.22 | 177313 | 201409 11 | 44:45.35 | 5:21.20 | 201410 | 225504 12 | 50:06.55 | 5:24.42 | 225505 | 249846

Характеристики диапазона извлечения и сообщения об ошибках

Выбранный диапазон

Имя файла D:\My MusicLarry\Big Gilson - Puro Feeling\Big Gilson - Puro Feeling.wav

Пиковый уровень 100.0 % Качество диапазона 99.9 % CRC копии 52B09031 Копирование... OK

Ошибок не произошло

Конец отчёта
 
REM GENRE BluesREM DATE 2004REM DISCID B10D030CREM COMMENT "ExactAudioCopy v0.99pb4"PERFORMER "Big Gilson"TITLE "Puro Feeling"FILE "Big Gilson - Puro Feeling.flac" WAVE TRACK 01 AUDIO TITLE "Puro Feeling" PERFORMER "Big Gilson" INDEX 01 00:00:00 TRACK 02 AUDIO TITLE "Baby Please Don't Go" PERFORMER "Big Gilson" INDEX 01 03:51:40 TRACK 03 AUDIO TITLE "Fechada pra Mim" PERFORMER "Big Gilson" INDEX 01 06:55:59 TRACK 04 AUDIO TITLE "The one and only one" PERFORMER "Big Gilson" INDEX 01 12:14:20 TRACK 05 AUDIO TITLE "Let me be free" PERFORMER "Big Gilson" INDEX 01 17:49:44 TRACK 06 AUDIO TITLE "945/106 blues" PERFORMER "Big Gilson" INDEX 01 23:07:67 TRACK 07 AUDIO TITLE "Mr. Freeze" PERFORMER "Big Gilson" INDEX 01 27:26:08 TRACK 08 AUDIO TITLE "Dog face baby" PERFORMER "Big Gilson" INDEX 01 31:36:29 TRACK 09 AUDIO TITLE "Nгo lembre de chorar" PERFORMER "Big Gilson" INDEX 01 35:44:09 TRACK 10 AUDIO TITLE "Hey now baby" PERFORMER "Big Gilson" INDEX 01 39:24:13 TRACK 11 AUDIO TITLE "Lully" PERFORMER "Big Gilson" INDEX 01 44:45:35 TRACK 12 AUDIO TITLE "Panos e PLanos" PERFORMER "Big Gilson" INDEX 01 50:06:55
 
-----------------------

DON'T MODIFY THIS FILE

-----------------------

PERFORMER: auCDtect Task Manager, ver. 1.5.1RC4 build 1.5.1.5Copyright (c) 2008-2010 y-soft. All rights reservedhttp://y-soft.org

ANALYZER: auCDtect: CD records authenticity detector, version 0.8.2Copyright (c) 2004 Oleg Berngardt. All rights reserved.Copyright (c) 2004 Alexander Djourik. All rights reserved.

FILE: Big Gilson - Puro Feeling.flac Size: 444764951 Hash: 602E67A9C9EE5C07B667A0F1A0F2C4D8 Accuracy: -m0 Conclusion: CDDA 100% Signature: 8A859C1FDA492168C975F71501B0856CEEE56EBB
Доп. информация
Big Gilson - guitars, violin, vocals
Pedro Augusto - piano, organ hammond XK-2
Itaro Walker - bass
Beto Werther - drums, percussion, backing vocal
Big Gilson & Blues Dynamite

"...When I see such a young man so far from America, playing the blues so well, I feel happy and proud that my mission in this life is done" B.B. King - Dec. /98
When the average fan thinks of hotbeds of the blues, he or she thinks of cities ...
Like Chicago, Austin, and Memphis, and even such far-flung outposts as London and Paris. That's all set to change, however, as this red-hot Brazilian, guitarist Big Gilson a TopCat Records artist, is poised to put Rio de Janeiro on the blues map.Big Gilson, was born in Rio in 1959, and plays guitar since the age of 15, when he first time listen to a Johnny Winters record, and decided what he wanted to do for the rest of his life. A founding member of the wildly successful Brazilian blues-rock quintet Big Allanbik (Portuguese for "Big Whiskey Still") Gilson and Co. have released four CDs in their native country, and honed their chops the last ten years giging on their own (in Brazil, Argentina, Europe and America) and as the opening act for Steve Winwood on his Brazilian tour, Johnny Rivers (70.000 people audience), and master B.B. King on his most recent tour of Brazil...


Трекер:  [ 29-Янв-2012 05:23 ]

  

Скачать .torrent

Размер .torrent файла 17 KB


Размер: 426 MB
Хэш (hash) релиза: 13261fed8e286800e7b4e8f549d5ed9915f2d7bf

Еще никто не оставлял запись к записи скачать торрент Big Gilson & Blues Dynamite - Puro Feeling - 2005, FLAC . Будь первым!

!Обратная связь