Скачать через торрент музыку Marcus Miller - Power, The Essential - 2006, FLAC бесплатно без регистрации torrent

Если у вас наблюдаются проблемы со скриншотами, переходом по ссылками, скачиванием торрентов - проблемы в блокировщике рекламы AdBlock. #хорошегоДня!


Статистика раздачи
Размер:  479 MB   |    Зарегистрирован:  5 лет 8 месяцев   |    .torrent скачан:  45 раз   |   
Раздают:  1  
   
Загрузка...
 
Автор Сообщение

Umakiro

avatar Umakiro


Marcus Miller
Power,
The Essential
Жанр: Funk
Страна-производитель диска: France
Год издания диска: 2006
Издатель (лейбл):
Номер по каталогу: FDM46050366882
Страна: USA
Аудиокодек: FLAC (*.flac)
Тип рипа: tracks+.cue
Битрейт аудио: lossless
Продолжительность: 1:08:02
Источник (релизер): what.cd
Наличие сканов в содержимом раздачи: да
01. Panther (6:01)
02. Power (4:38)
04. Scoop (6:00)
05. Moonlight Sonata (7:00)
06. Frankenstein (6:33)
07. Cousin John (4:40)
08. Your Amazing Grace (4:25)
09. The Blues (5:46)
10. Boomerang (Feat. Raphael Saddiq) (5:49)
11. Infatuation (Feat. Lalah Hathaway) (5:10)
12. Come Together (5:31)
13. Ooh (Feat. Lalah Hathaway) (5:39)
14. Outro Duction (0:50)

 
Exact Audio Copy V1.0 beta 2 from 29. April 2011

EAC extraction logfile from 16. December 2011, 22:39

Marcus Miller / The Essential Marcus Miller - Power

Used drive : PIONEER DVD RW DVR-108 Adapter: 1 ID: 0

Read mode : SecureUtilize accurate stream : YesDefeat audio cache : YesMake use of C2 pointers : No

Read offset correction : 48Overread into Lead-In and Lead-Out : NoFill up missing offset samples with silence : YesDelete leading and trailing silent blocks : NoNull samples used in CRC calculations : YesUsed interface : Installed external ASPI interfaceGap handling : Appended to previous track

Used output format : User Defined EncoderSelected bitrate : 896 kBit/sQuality : HighAdd ID3 tag : NoCommand line compressor : C:\Program Files\Exact Audio Copy\Flac\flac.exeAdditional command line options : -V -8 -T "artist=%artist%" -T "title=%title%" -T "album=%albumtitle%" -T "date=%year%" -T "tracknumber=%tracknr%" -T "genre=%genre%" %source%

TOC of the extracted CD

Track | Start | Length | Start sector | End sector --------------------------------------------------------- 1 | 0:00.00 | 6:00.65 | 0 | 27064 2 | 6:00.65 | 4:37.46 | 27065 | 47885 3 | 10:38.36 | 5:19.65 | 47886 | 71875 4 | 15:58.26 | 5:59.43 | 71876 | 98843 5 | 21:57.69 | 6:59.52 | 98844 | 130320 6 | 28:57.46 | 6:33.14 | 130321 | 159809 7 | 35:30.60 | 4:40.18 | 159810 | 180827 8 | 40:11.03 | 4:25.31 | 180828 | 200733 9 | 44:36.34 | 5:46.12 | 200734 | 226695 10 | 50:22.46 | 5:49.04 | 226696 | 252874 11 | 56:11.50 | 5:09.49 | 252875 | 276098 12 | 61:21.24 | 5:31.25 | 276099 | 300948 13 | 66:52.49 | 5:39.21 | 300949 | 326394 14 | 72:31.70 | 0:50.24 | 326395 | 330168

Track 1

Filename E:\Flac EAC\Marcus Miller - The Essential Marcus Miller - Power - 2006\01 - Panther.wav

Pre-gap length 0:00:02.00

Peak level 100.0 % Extraction speed 1.7 X Track quality 99.9 % Test CRC 90BC1008 Copy CRC 90BC1008 Accurately ripped (confidence 27) [F3269FC9] (AR v1) Copy OK

Track 2

Filename E:\Flac EAC\Marcus Miller - The Essential Marcus Miller - Power - 2006\02 - Power.wav

Peak level 100.0 % Extraction speed 2.0 X Track quality 100.0 % Test CRC 7D38B706 Copy CRC 7D38B706 Accurately ripped (confidence 29) [CF4EE007] (AR v1) Copy OK

Track 3

Filename E:\Flac EAC\Marcus Miller - The Essential Marcus Miller - Power - 2006\03 - Rush Over (Feat. Me 'Shell NdegéOcello).wav

Peak level 100.0 % Extraction speed 2.2 X Track quality 100.0 % Test CRC 2277CA08 Copy CRC 2277CA08 Accurately ripped (confidence 29) [FE86B242] (AR v1) Copy OK

Track 4

Filename E:\Flac EAC\Marcus Miller - The Essential Marcus Miller - Power - 2006\04 - Scoop.wav

Peak level 100.0 % Extraction speed 2.4 X Track quality 100.0 % Test CRC 549D0DBC Copy CRC 549D0DBC Accurately ripped (confidence 29) [5F7C8F8C] (AR v1) Copy OK

Track 5

Filename E:\Flac EAC\Marcus Miller - The Essential Marcus Miller - Power - 2006\05 - Moonlight Sonata.wav

Peak level 100.0 % Extraction speed 2.7 X Track quality 100.0 % Test CRC 94284908 Copy CRC 94284908 Accurately ripped (confidence 29) [C013AE59] (AR v1) Copy OK

Track 6

Filename E:\Flac EAC\Marcus Miller - The Essential Marcus Miller - Power - 2006\06 - Frankenstein.wav

Peak level 100.0 % Extraction speed 2.9 X Track quality 100.0 % Test CRC 56011190 Copy CRC 56011190 Accurately ripped (confidence 27) [6F23FAD3] (AR v1) Copy OK

Track 7

Filename E:\Flac EAC\Marcus Miller - The Essential Marcus Miller - Power - 2006\07 - Cousin John.wav

Peak level 100.0 % Extraction speed 2.9 X Track quality 100.0 % Test CRC 0566C522 Copy CRC 0566C522 Accurately ripped (confidence 30) [0B228976] (AR v1) Copy OK

Track 8

Filename E:\Flac EAC\Marcus Miller - The Essential Marcus Miller - Power - 2006\08 - Your Amazing Grace.wav

Peak level 100.0 % Extraction speed 3.0 X Track quality 100.0 % Test CRC 168518A0 Copy CRC 168518A0 Accurately ripped (confidence 29) [80FB341A] (AR v1) Copy OK

Track 9

Filename E:\Flac EAC\Marcus Miller - The Essential Marcus Miller - Power - 2006\09 - The Blues.wav

Peak level 100.0 % Extraction speed 3.2 X Track quality 100.0 % Test CRC BE4A35F8 Copy CRC BE4A35F8 Accurately ripped (confidence 29) [9F70014D] (AR v1) Copy OK

Track 10

Filename E:\Flac EAC\Marcus Miller - The Essential Marcus Miller - Power - 2006\10 - Boomerang (Feat. Raphael Saddiq).wav

Peak level 100.0 % Extraction speed 3.3 X Track quality 100.0 % Test CRC 58F940B6 Copy CRC 58F940B6 Accurately ripped (confidence 29) [DB008322] (AR v1) Copy OK

Track 11

Filename E:\Flac EAC\Marcus Miller - The Essential Marcus Miller - Power - 2006\11 - Infatuation (Feat. Lalah Hathaway).wav

Peak level 100.0 % Extraction speed 3.4 X Track quality 100.0 % Test CRC 212E2655 Copy CRC 212E2655 Accurately ripped (confidence 29) [04E1AA8F] (AR v1) Copy OK

Track 12

Filename E:\Flac EAC\Marcus Miller - The Essential Marcus Miller - Power - 2006\12 - Come Together.wav

Peak level 100.0 % Extraction speed 3.2 X Track quality 99.9 % Test CRC D33F8883 Copy CRC D33F8883 Accurately ripped (confidence 29) [F95F8A50] (AR v1) Copy OK

Track 13

Filename E:\Flac EAC\Marcus Miller - The Essential Marcus Miller - Power - 2006\13 - Ooh (Feat. Lalah Hathaway).wav

Peak level 100.0 % Extraction speed 3.3 X Track quality 99.9 % Test CRC ADA5EF9F Copy CRC ADA5EF9F Accurately ripped (confidence 28) [5F716DCA] (AR v1) Copy OK

Track 14

Filename E:\Flac EAC\Marcus Miller - The Essential Marcus Miller - Power - 2006\14 - Outro Duction.wav

Peak level 82.6 % Extraction speed 2.3 X Track quality 100.0 % Test CRC B40F3A15 Copy CRC B40F3A15 Accurately ripped (confidence 30) [747F6F09] (AR v1) Copy OK

All tracks accurately ripped

No errors occurred

End of status report

==== Log checksum AD516170CB9686A3F9A3A47ECEA662EBB4EE481BB0DA94E709FBE68E1EB9FA22 ====
 
REM GENRE JazzREM DATE 2006REM DISCID B611320EREM COMMENT "ExactAudioCopy v1.0b2"FILE "01 - Panther.wav" WAVE TRACK 01 AUDIO FLAGS DCP INDEX 01 00:00:00FILE "02 - Power.wav" WAVE TRACK 02 AUDIO FLAGS DCP INDEX 01 00:00:00FILE "03 - Rush Over (Feat. Me 'Shell NdegйOcello).wav" WAVE TRACK 03 AUDIO FLAGS DCP INDEX 01 00:00:00FILE "04 - Scoop.wav" WAVE TRACK 04 AUDIO FLAGS DCP INDEX 01 00:00:00FILE "05 - Moonlight Sonata.wav" WAVE TRACK 05 AUDIO FLAGS DCP INDEX 01 00:00:00FILE "06 - Frankenstein.wav" WAVE TRACK 06 AUDIO FLAGS DCP INDEX 01 00:00:00FILE "07 - Cousin John.wav" WAVE TRACK 07 AUDIO FLAGS DCP INDEX 01 00:00:00FILE "08 - Your Amazing Grace.wav" WAVE TRACK 08 AUDIO FLAGS DCP INDEX 01 00:00:00FILE "09 - The Blues.wav" WAVE TRACK 09 AUDIO FLAGS DCP INDEX 01 00:00:00FILE "10 - Boomerang (Feat. Raphael Saddiq).wav" WAVE TRACK 10 AUDIO FLAGS DCP INDEX 01 00:00:00FILE "11 - Infatuation (Feat. Lalah Hathaway).wav" WAVE TRACK 11 AUDIO FLAGS DCP INDEX 01 00:00:00FILE "12 - Come Together.wav" WAVE TRACK 12 AUDIO FLAGS DCP INDEX 01 00:00:00FILE "13 - Ooh (Feat. Lalah Hathaway).wav" WAVE TRACK 13 AUDIO FLAGS DCP INDEX 01 00:00:00FILE "14 - Outro Duction.wav" WAVE TRACK 14 AUDIO FLAGS DCP INDEX 01 00:00:00
 
AUDIOCHECKER v2.0 beta (build 457) - by Dester - opdester@freemail.hu~~~~~~~~~~~~~~~~~~~~~~~~~~~~~~~~~~-=== НЕ РЕДАКТИРУЙТЕ ЭТОТ ФАЙЛ! ===-

Путь: ...\n°07 - Marcus Miller - Power, The Essential - 2006

01 -=- 01 - Panther.flac -=- CDDA (99%)02 -=- 02 - Power.flac -=- CDDA (99%)03 -=- 03 - Rush Over (Feat. Me 'Shell NdegeOcello).flac -=- ERROR04 -=- 04 - Scoop.flac -=- CDDA (100%)05 -=- 05 - Moonlight Sonata.flac -=- CDDA (100%)06 -=- 06 - Frankenstein.flac -=- CDDA (100%)07 -=- 07 - Cousin John.flac -=- CDDA (94%)08 -=- 08 - Your Amazing Grace.flac -=- CDDA (100%)09 -=- 09 - The Blues.flac -=- CDDA (100%)10 -=- 10 - Boomerang (Feat. Raphael Saddiq).flac -=- CDDA (99%)11 -=- 11 - Infatuation (Feat. Lalah Hathaway).flac -=- CDDA (100%)12 -=- 12 - Come Together.flac -=- CDDA (100%)13 -=- 13 - Ooh (Feat. Lalah Hathaway).flac -=- CDDA (100%)14 -=- 14 - Outro Duction.flac -=- CDDA (100%)

Сводка 99,31% CDDA

217744820


Трекер:  [ 29-Янв-2012 05:23 ]

  

Скачать .torrent

Размер .torrent файла 20 KB


Размер: 479 MB
Хэш (hash) релиза: 346c50f4d38e36a0eae8d1c19a8151897453e887

Еще никто не оставлял запись к записи скачать торрент Marcus Miller - Power, The Essential - 2006, FLAC . Будь первым!

!Обратная связь