Скачать через торрент музыку Corby Yates - Back From Yesterday - 2005, бесплатно без регистрации torrent

Если у вас наблюдаются проблемы со скриншотами, переходом по ссылками, скачиванием торрентов - проблемы в блокировщике рекламы AdBlock. #хорошегоДня!


Статистика раздачи
Размер:  396 MB   |    Зарегистрирован:  5 лет 8 месяцев   |    .torrent скачан:  20 раз   |   
Раздают:  1  
   
Загрузка...
 
Автор Сообщение

Umakiro

avatar Umakiro


Corby Yates - Back From Yesterday

Жанр: Blues/Rock
Год издания диска: 2005
Аудиокодек: APE (*.ape)
Тип рипа: image+.cue
Битрейт аудио: lossless
Продолжительность: 52:25
Источник (релизер): CD
Наличие сканов в содержимом раздачи: да
Треклист:
01. Dallas [0:01:32.30]
02. Back From Yesterday [0:04:54.26]
03. Green Eyed Girl [0:03:45.26]
04. Are You Not There? [0:03:48.40]
05. Back To You [0:04:49.97]
06. Salty Pain [0:05:31.57]
07. Is This Evil? [0:05:26.94]
08. Do You Know? [0:04:51.66]
09. I Don't Mind [0:04:06.14]
10. The Wrong Song [0:06:38.94]
11. The Cure [0:03:32.14]
12. Angel [0:03:27.34]
 
Exact Audio Copy V0.99 prebeta 4 from 23. January 2008

Отчёт EAC об извлечении, выполненном 23. января 2012, 13:46

Corby Yates / Back From Yesterday

Дисковод: Optiarc DVD RW AD-7173A Adapter: 0 ID: 1

Режим чтения : ДостоверностьИспользование точного потока : ДаОтключение кэша аудио : ДаИспользование указателей C2 : Нет

Коррекция смещения при чтении : 48Способность читать области Lead-in и Lead-out : НетЗаполнение пропущенных сэмплов тишиной : ДаУдаление блоков с тишиной в начале и конце : НетПри вычислениях CRC использовались нулевые сэмплы : ДаИнтерфейс : Встроенный Win32-интерфейс для Win NT/2000

Выходной формат : Внутренние WAV-операцииФормат сэмплов : 44.100 Гц; 16 бит; стерео

TOC извлечённого CD

Трек | Старт | Длительность | Начальный сектор | Конечный сектор --------------------------------------------------------------------- 1 | 0:00.00 | 1:32.23 | 0 | 6922 2 | 1:32.23 | 4:54.20 | 6923 | 28992 3 | 6:26.43 | 3:45.20 | 28993 | 45887 4 | 10:11.63 | 3:48.30 | 45888 | 63017 5 | 14:00.18 | 4:49.73 | 63018 | 84765 6 | 18:50.16 | 5:31.43 | 84766 | 109633 7 | 24:21.59 | 5:26.71 | 109634 | 134154 8 | 29:48.55 | 4:51.50 | 134155 | 156029 9 | 34:40.30 | 4:06.11 | 156030 | 174490 10 | 38:46.41 | 6:38.71 | 174491 | 204411 11 | 45:25.37 | 3:32.11 | 204412 | 220322 12 | 48:57.48 | 3:27.26 | 220323 | 235873

Характеристики диапазона извлечения и сообщения об ошибках

Выбранный диапазон

Имя файла E:\РАЗДАЧИ\Corby Yates - Back From Yesterday\Corby Yates - Back From Yesterday.wav

Пиковый уровень 100.0 % Качество диапазона 99.9 % CRC теста 73B52AC6 CRC копии 73B52AC6 Копирование... OK

Ошибок не произошло

AccurateRip: сводка

Трек 1 нет в базе данныхТрек 2 нет в базе данныхТрек 3 нет в базе данныхТрек 4 нет в базе данныхТрек 5 нет в базе данныхТрек 6 нет в базе данныхТрек 7 нет в базе данныхТрек 8 нет в базе данныхТрек 9 нет в базе данныхТрек 10 нет в базе данныхТрек 11 нет в базе данныхТрек 12 нет в базе данных

Ни одного трека нет в базе AccurateRip

Конец отчёта


Трекер:  [ 29-Янв-2012 05:21 ]

  

Скачать .torrent

Размер .torrent файла 16 KB


Размер: 396 MB
Хэш (hash) релиза: a996cea24ffdcd9bb70b9ce9e6e2fe58d023621b

Еще никто не оставлял запись к записи скачать торрент Corby Yates - Back From Yesterday - 2005, . Будь первым!

!Обратная связь