Скачать через торрент музыку Fleetwood Mac - The Pious Bird Of Good Omen - 2004, APE бесплатно без регистрации torrent

Если у вас наблюдаются проблемы со скриншотами, переходом по ссылками, скачиванием торрентов - проблемы в блокировщике рекламы AdBlock. #хорошегоДня!


Статистика раздачи
Размер:  394 MB   |    Зарегистрирован:  5 лет 8 месяцев   |    .torrent скачан:  43 раза   |   
Раздают:  1  
   
Загрузка...
 
Автор Сообщение

Umakiro

avatar Umakiro


Fleetwood Mac / The Pious Bird Of Good Omen

Жанр: Blues
Страна-производитель диска: UK
Год издания диска: 2004
Издатель (лейбл): Columbia
Номер по каталогу: 5164452
Страна: England
Аудиокодек: APE (*.ape)
Тип рипа: image+.cue
Битрейт аудио: lossless
Продолжительность: 1:04:20
Источник (релизер): Собственный рип
Наличие сканов в содержимом раздачи: да
Треклист:
01 Need Your Love So Bad [Version #2, Remake, Take 4]
02 Rambling Pony
03 I Believe My Time Ain't Long
04 The Sun Is Shining
05 Albatross
06 Black Magic Woman
07 Jigsaw Puzzle Blues
08 Like Crying
09 Need Your Love So Bad [Version #1, Take 1,2 & 3]
10 Need Your Love So Bad [Version #2, Take 1 & 2]
11 Need Your Love So Bad [Version #2, Remake, Take 3]
12 Need Your Love So Bad [USA Version]
 
Exact Audio Copy V0.99 prebeta 5 from 4. May 2009

Отчёт EAC об извлечении, выполненном 28. января 2012, 17:05

Fleetwood Mac / The Pious Bird Of Good Omen

Дисковод: Optiarc DVD RW AD-7200A Adapter: 1 ID: 0

Режим чтения : ДостоверностьИспользование точного потока : ДаОтключение кэша аудио : ДаИспользование указателей C2 : Нет

Коррекция смещения при чтении : 48Способность читать области Lead-in и Lead-out : НетЗаполнение пропущенных сэмплов тишиной : ДаУдаление блоков с тишиной в начале и конце : НетПри вычислениях CRC использовались нулевые сэмплы : ДаИнтерфейс : Встроенный Win32-интерфейс для Win NT/2000

Выходной формат : Внутренние WAV-операцииФормат сэмплов : 44.100 Гц; 16 бит; стерео

TOC извлечённого CD

Трек | Старт | Длительность | Начальный сектор | Конечный сектор --------------------------------------------------------------------- 1 | 0:00.00 | 6:57.50 | 0 | 31324 2 | 6:57.50 | 3:34.35 | 31325 | 47409 3 | 10:32.10 | 3:03.17 | 47410 | 61151 4 | 13:35.27 | 3:12.18 | 61152 | 75569 5 | 16:47.45 | 3:11.07 | 75570 | 89901 6 | 19:58.52 | 2:52.53 | 89902 | 102854 7 | 22:51.30 | 1:34.37 | 102855 | 109941 8 | 24:25.67 | 2:30.53 | 109942 | 121244 9 | 26:56.45 | 11:34.30 | 121245 | 173324 10 | 38:31.00 | 13:08.30 | 173325 | 232454 11 | 51:39.30 | 6:21.55 | 232455 | 261084 12 | 58:01.10 | 6:19.55 | 261085 | 289564

Характеристики диапазона извлечения и сообщения об ошибках

Выбранный диапазон

Имя файла H:\Раздачи\Fleetwood Mac - The Pious Bird Of Good Omen -2004\Fleetwood Mac - The Pious Bird Of Good Omen.wav

Пиковый уровень 97.4 % Качество диапазона 100.0 % CRC теста 272CCB41 CRC копии 272CCB41 Копирование... OK

Ошибок не произошло

AccurateRip: сводка

Трек 1 точное извлечение (доверие 16) [0EB5CD46]Трек 2 точное извлечение (доверие 16) [4E363307]Трек 3 точное извлечение (доверие 16) [A46EF9B1]Трек 4 точное извлечение (доверие 16) [BD34E7F3]Трек 5 точное извлечение (доверие 17) [9FF1DF27]Трек 6 точное извлечение (доверие 17) [0AF3B41A]Трек 7 точное извлечение (доверие 16) [2601CD97]Трек 8 точное извлечение (доверие 16) [695E6A5C]Трек 9 точное извлечение (доверие 16) [D983232B]Трек 10 точное извлечение (доверие 15) [0D62DA4F]Трек 11 точное извлечение (доверие 16) [4CF68789]Трек 12 точное извлечение (доверие 16) [9A09B8B9]

Все треки извлечены точно

Конец отчёта
 
REM GENRE BluesREM DATE 1969REM DISCID 8A0F140CREM COMMENT "ExactAudioCopy v0.99pb5"PERFORMER "Fleetwood Mac"TITLE "The Pious Bird Of Good Omen"FILE "Fleetwood Mac - The Pious Bird Of Good Omen.wav" WAVE TRACK 01 AUDIO TITLE "Need Your Love So Bad [Version #2, Remake, Take 4]" PERFORMER "Fleetwood Mac" INDEX 01 00:00:00 TRACK 02 AUDIO TITLE "Rambling Pony" PERFORMER "Fleetwood Mac" INDEX 00 06:56:67 INDEX 01 06:57:50 TRACK 03 AUDIO TITLE "I Believe My Time Ain't Long" PERFORMER "Fleetwood Mac" INDEX 00 10:30:62 INDEX 01 10:32:10 TRACK 04 AUDIO TITLE "The Sun Is Shining" PERFORMER "Fleetwood Mac" INDEX 00 13:34:00 INDEX 01 13:35:27 TRACK 05 AUDIO TITLE "Albatross" PERFORMER "Fleetwood Mac" INDEX 00 16:45:62 INDEX 01 16:47:45 TRACK 06 AUDIO TITLE "Black Magic Woman" PERFORMER "Fleetwood Mac" INDEX 00 19:58:10 INDEX 01 19:58:52 TRACK 07 AUDIO TITLE "Jigsaw Puzzle Blues" PERFORMER "Fleetwood Mac" INDEX 00 22:50:10 INDEX 01 22:51:30 TRACK 08 AUDIO TITLE "Like Crying" PERFORMER "Fleetwood Mac" INDEX 00 24:25:20 INDEX 01 24:25:67 TRACK 09 AUDIO TITLE "Need Your Love So Bad [Version #1, Take 1,2 & 3]" PERFORMER "Fleetwood Mac" INDEX 00 26:55:42 INDEX 01 26:56:45 TRACK 10 AUDIO TITLE "Need Your Love So Bad [Version #2, Take 1 & 2]" PERFORMER "Fleetwood Mac" INDEX 00 38:29:72 INDEX 01 38:31:00 TRACK 11 AUDIO TITLE "Need Your Love So Bad [Version #2, Remake, Take 3]" PERFORMER "Fleetwood Mac" INDEX 00 51:37:32 INDEX 01 51:39:30 TRACK 12 AUDIO TITLE "Need Your Love So Bad [USA Version]" PERFORMER "Fleetwood Mac" INDEX 00 57:58:50 INDEX 01 58:01:10
 


Трекер:  [ 29-Янв-2012 05:21 ]

  

Скачать .torrent

Размер .torrent файла 16 KB


Размер: 394 MB
Хэш (hash) релиза: 3b8dc32c926f45e32e4b4ebd562b25662bbb539d

Еще никто не оставлял запись к записи скачать торрент Fleetwood Mac - The Pious Bird Of Good Omen - 2004, APE . Будь первым!

!Обратная связь