Скачать через торрент музыку The City Shakers - The Very Best Of - 2008, бесплатно без регистрации torrent

Если у вас наблюдаются проблемы со скриншотами, переходом по ссылками, скачиванием торрентов - проблемы в блокировщике рекламы AdBlock. #хорошегоДня!


Статистика раздачи
Размер:  239 MB   |    Зарегистрирован:  5 лет 8 месяцев   |    .torrent скачан:  26 раз   |   
Раздают:  1  
   
Загрузка...
 
Автор Сообщение

Umakiro

avatar Umakiro


The City Shakers - The Very Best Of

Жанр: Blues
Год издания диска: 2008
Аудиокодек: APE (*.ape)
Тип рипа: image+.cue
Битрейт аудио: lossless
Продолжительность: 40:16
Источник (релизер): CD
Наличие сканов в содержимом раздачи: да
Треклист:
01. I Ain't Got You.wav [0:02:43.14]
02. Tellin' You Straight.wav [0:04:17.00]
03. Shake That Thing.wav [0:03:08.45]
04. Mean Ol' Train.wav [0:02:44.26]
05. Sugar Sweet.wav [0:02:53.69]
06. Get Out Of The Car.wav [0:04:14.00]
07. Nosey Neigbours.wav [0:03:14.65]
08. Roll Your Moneymaker.wav [0:03:48.90]
09. Mellow Down Easy.wav [0:02:42.25]
10. Pall-bearer's Song.wav [0:03:12.50]
11. Got My Mojo Working.wav [0:03:56.38]
12. Messin With The Booze.wav [0:03:20.93]
 
Exact Audio Copy V0.99 prebeta 4 from 23. January 2008

Отчёт EAC об извлечении, выполненном 28. января 2012, 11:33

The City Shakers / The Very Best Of

Дисковод: Optiarc DVD RW AD-7173A Adapter: 0 ID: 1

Режим чтения : ДостоверностьИспользование точного потока : ДаОтключение кэша аудио : ДаИспользование указателей C2 : Нет

Коррекция смещения при чтении : 48Способность читать области Lead-in и Lead-out : НетЗаполнение пропущенных сэмплов тишиной : ДаУдаление блоков с тишиной в начале и конце : НетПри вычислениях CRC использовались нулевые сэмплы : ДаИнтерфейс : Встроенный Win32-интерфейс для Win NT/2000

Выходной формат : Внутренние WAV-операцииФормат сэмплов : 44.100 Гц; 16 бит; стерео

TOC извлечённого CD

Трек | Старт | Длительность | Начальный сектор | Конечный сектор --------------------------------------------------------------------- 1 | 0:00.00 | 2:43.11 | 0 | 12235 2 | 2:43.11 | 4:17.00 | 12236 | 31510 3 | 7:00.11 | 3:08.34 | 31511 | 45644 4 | 10:08.45 | 2:44.20 | 45645 | 57964 5 | 12:52.65 | 2:53.52 | 57965 | 70991 6 | 15:46.42 | 4:14.00 | 70992 | 90041 7 | 20:00.42 | 3:14.49 | 90042 | 104640 8 | 23:15.16 | 3:48.68 | 104641 | 121808 9 | 27:04.09 | 2:42.19 | 121809 | 133977 10 | 29:46.28 | 3:12.38 | 133978 | 148415 11 | 32:58.66 | 3:56.29 | 148416 | 166144 12 | 36:55.20 | 3:20.70 | 166145 | 181214

Характеристики диапазона извлечения и сообщения об ошибках

Выбранный диапазон

Имя файла E:\РАЗДАЧИ\The City Shakers - The Very Best Of\The City Shakers - The Very Best Of.wav

Пиковый уровень 98.9 % Качество диапазона 99.9 % CRC теста 0D0ED4AE CRC копии 0D0ED4AE Копирование... OK

Ошибок не произошло

AccurateRip: сводка

Трек 1 точное извлечение (доверие 1) [29DC292D]Трек 2 точное извлечение (доверие 1) [8F6A288F]Трек 3 точное извлечение (доверие 1) [F80710B0]Трек 4 точное извлечение (доверие 1) [AC0E38E7]Трек 5 точное извлечение (доверие 1) [B49EA138]Трек 6 точное извлечение (доверие 1) [D8D6E0E1]Трек 7 точное извлечение (доверие 1) [1E3131E5]Трек 8 точное извлечение (доверие 1) [3EFFC352]Трек 9 точное извлечение (доверие 1) [BA10D786]Трек 10 точное извлечение (доверие 1) [2B7608E1]Трек 11 точное извлечение (доверие 1) [19E71253]Трек 12 точное извлечение (доверие 1) [7AB70776]

Все треки извлечены точно

Конец отчёта


Трекер:  [ 29-Янв-2012 05:20 ]

  

Скачать .torrent

Размер .torrent файла 19 KB


Размер: 239 MB
Хэш (hash) релиза: 426df9e733b7e981f8b2520a965a5ab96b887b63

Еще никто не оставлял запись к записи скачать торрент The City Shakers - The Very Best Of - 2008, . Будь первым!

!Обратная связь