Скачать через торрент музыку Teeny Tucker - Two Big Ms - 2008, бесплатно без регистрации torrent

Если у вас наблюдаются проблемы со скриншотами, переходом по ссылками, скачиванием торрентов - проблемы в блокировщике рекламы AdBlock. #хорошегоДня!


Статистика раздачи
Размер:  225 MB   |    Зарегистрирован:  5 лет 8 месяцев   |    .torrent скачан:  31 раз   |   
Раздают:  1  
   
Загрузка...
 
Автор Сообщение

Umakiro

avatar Umakiro


Teeny Tucker - Two Big M's

Жанр: Blues
Год издания диска: 2008
Аудиокодек: APE (*.ape)
Тип рипа: image+.cue
Битрейт аудио: lossless
Продолжительность: 34:35
Источник (релизер): CD
Наличие сканов в содержимом раздачи: да
Треклист:
01. Hound Dog [0:02:50.76]
02. Unlucky Girl [0:03:04.76]
03. Bumble Bee [0:03:44.20]
04. Rockhouse [0:02:24.17]
05. Ramblin' Blues [0:03:24.97]
06. Whole Lotta Shakin' [0:03:16.21]
07. Saint Louis Blues [0:02:46.29]
08. Sassy Mama [0:03:54.37]
09. Two Big M's [0:05:48.50]
10. Heavy Load [0:03:10.50]
 
Exact Audio Copy V0.99 prebeta 4 from 23. January 2008

Отчёт EAC об извлечении, выполненном 23. января 2012, 18:16

Teeny Tucker / Two Big M's

Дисковод: Optiarc DVD RW AD-7173A Adapter: 0 ID: 1

Режим чтения : ДостоверностьИспользование точного потока : ДаОтключение кэша аудио : ДаИспользование указателей C2 : Нет

Коррекция смещения при чтении : 48Способность читать области Lead-in и Lead-out : НетЗаполнение пропущенных сэмплов тишиной : ДаУдаление блоков с тишиной в начале и конце : НетПри вычислениях CRC использовались нулевые сэмплы : ДаИнтерфейс : Встроенный Win32-интерфейс для Win NT/2000

Выходной формат : Внутренние WAV-операцииФормат сэмплов : 44.100 Гц; 16 бит; стерео

TOC извлечённого CD

Трек | Старт | Длительность | Начальный сектор | Конечный сектор --------------------------------------------------------------------- 1 | 0:00.00 | 2:50.57 | 0 | 12806 2 | 2:50.57 | 3:04.57 | 12807 | 26663 3 | 5:55.39 | 3:44.15 | 26664 | 43478 4 | 9:39.54 | 2:24.13 | 43479 | 54291 5 | 12:03.67 | 3:24.73 | 54292 | 69664 6 | 15:28.65 | 3:16.16 | 69665 | 84380 7 | 18:45.06 | 2:46.22 | 84381 | 96852 8 | 21:31.28 | 3:54.28 | 96853 | 114430 9 | 25:25.56 | 5:48.38 | 114431 | 140568 10 | 31:14.19 | 3:10.38 | 140569 | 154856

Характеристики диапазона извлечения и сообщения об ошибках

Выбранный диапазон

Имя файла E:\РАЗДАЧИ\Teeny Tucker - Two Big M's\Teeny Tucker - Two Big M's.wav

Пиковый уровень 100.0 % Качество диапазона 99.9 % CRC теста 82E84ABC CRC копии 82E84ABC Копирование... OK

Ошибок не произошло

AccurateRip: сводка

Трек 1 нет в базе данныхТрек 2 нет в базе данныхТрек 3 нет в базе данныхТрек 4 нет в базе данныхТрек 5 нет в базе данныхТрек 6 нет в базе данныхТрек 7 нет в базе данныхТрек 8 нет в базе данныхТрек 9 нет в базе данныхТрек 10 нет в базе данных

Ни одного трека нет в базе AccurateRip

Конец отчёта


Трекер:  [ 29-Янв-2012 05:20 ]

  

Скачать .torrent

Размер .torrent файла 18 KB


Размер: 225 MB
Хэш (hash) релиза: 197ed106e93b4ff0d2d7e77b00b9941e44602ca3

Еще никто не оставлял запись к записи скачать торрент Teeny Tucker - Two Big Ms - 2008, . Будь первым!

!Обратная связь